<?xml version="1.0" standalone="no"?>
<!DOCTYPE svg PUBLIC "-//W3C//DTD SVG 1.1//EN" "http://www.w3.org/Graphics/SVG/1.1/DTD/svg11.dtd">
<svg xmlns="http://www.w3.org/2000/svg">
<metadata>Generated by Fontastic.me</metadata>
<defs>
<font id="crm" horiz-adv-x="512">
<font-face font-family="crm" units-per-em="512" ascent="480" descent="-32"/>
<missing-glyph horiz-adv-x="512" />

<glyph glyph-name="alarm" unicode="&#98;" d="M0 80c51 43 88 64 88 216 0 130 71 174 136 184 0 1 0 2 0 3 0 16 14 29 32 29 18 0 32-13 32-29 0-1 0-2 0-3 66-9 136-54 136-184 0-152 38-173 88-216z m256-80c-33 0-60 22-64 48l128 0c-3-26-31-48-64-48z"/>
<glyph glyph-name="build" unicode="&#99;" d="M352 211c0 7-6 13-13 13l-38 0c-7 0-13-6-13-13l0-38c0-7 6-13 13-13l38 0c7 0 13 6 13 13z m0 96c0 7-6 13-13 13l-38 0c-7 0-13-6-13-13l0-38c0-7 6-13 13-13l38 0c7 0 13 6 13 13z m0 96c0 7-6 13-13 13l-38 0c-7 0-13-6-13-13l0-38c0-7 6-13 13-13l38 0c7 0 13 6 13 13z m-128-192c0 7-6 13-13 13l-38 0c-7 0-13-6-13-13l0-38c0-7 6-13 13-13l38 0c7 0 13 6 13 13z m0 96c0 7-6 13-13 13l-38 0c-7 0-13-6-13-13l0-38c0-7 6-13 13-13l38 0c7 0 13 6 13 13z m0 96c0 7-6 13-13 13l-38 0c-7 0-13-6-13-13l0-38c0-7 6-13 13-13l38 0c7 0 13 6 13 13z m256-403l-192 0 0 83c0 7-6 13-13 13l-38 0c-7 0-13-6-13-13l0-83-192 0c-18 0-32 14-32 32 0 18 14 32 32 32l32 0 0 416c0 18 14 32 32 32l320 0c18 0 32-14 32-32l0-416 32 0c18 0 32-14 32-32 0-18-14-32-32-32z"/>
<glyph glyph-name="burger" unicode="&#100;" d="M0 464l512 0 0-96-512 0z m0-160l512 0 0-96-512 0z m0-160l512 0 0-96-512 0z"/>
<glyph glyph-name="calend" unicode="&#101;" d="M147 448l-38 0c-7 0-13 6-13 13l0 38c0 7 6 13 13 13l38 0c7 0 13-6 13-13l0-38c0-7-6-13-13-13z m256 0l-38 0c-7 0-13 6-13 13l0 38c0 7 6 13 13 13l38 0c7 0 13-6 13-13l0-38c0-7-6-13-13-13z m-19-269c0 7-6 13-13 13l-38 0c-7 0-13-6-13-13l0-38c0-7 6-13 13-13l38 0c7 0 13 6 13 13z m0 96c0 7-6 13-13 13l-38 0c-7 0-13-6-13-13l0-38c0-7 6-13 13-13l38 0c7 0 13 6 13 13z m-96-96c0 7-6 13-13 13l-38 0c-7 0-13-6-13-13l0-38c0-7 6-13 13-13l38 0c7 0 13 6 13 13z m0 96c0 7-6 13-13 13l-38 0c-7 0-13-6-13-13l0-38c0-7 6-13 13-13l38 0c7 0 13 6 13 13z m-96-96c0 7-6 13-13 13l-38 0c-7 0-13-6-13-13l0-38c0-7 6-13 13-13l38 0c7 0 13 6 13 13z m0 96c0 7-6 13-13 13l-38 0c-7 0-13-6-13-13l0-38c0-7 6-13 13-13l38 0c7 0 13 6 13 13z m256-275l-384 0c-35 0-64 29-64 64l0 384c0 35 29 64 64 64l0-83c0-7 6-13 13-13l102 0c7 0 13 6 13 13l0 83 128 0 0-83c0-7 6-13 13-13l102 0c7 0 13 6 13 13l0 83c35 0 64-29 64-64l0-384c0-35-29-64-64-64z"/>
<glyph glyph-name="cart" unicode="&#102;" d="M484 303l-90 0-66 160c-6 14-22 21-36 15-14-6-21-23-15-37l57-138-156 0 57 138c6 14-1 31-15 37-14 6-30-1-36-15l-66-160-90 0c-16 0-28-13-28-28 0-16 12-28 28-28l9 0 28-157c6-33 35-58 69-58l244 0c34 0 63 25 69 58l28 157 9 0c16 0 28 12 28 28 0 15-12 28-28 28z"/>
<glyph glyph-name="cogwheel" unicode="&#103;" d="M256 193c-35 0-64 28-64 63 0 36 29 64 64 64 35 0 64-28 64-64 0-35-29-63-64-63z m203 103c-9 1-18 9-21 17l-13 32c-4 8-3 20 3 27l21 28c5 7 5 18-1 25l-23 23c-7 6-18 6-25 1l-28-21c-7-6-20-7-27-2l-32 13c-8 2-16 11-17 20l-5 35c-2 9-10 16-19 17 0 0-5 1-16 1-11 0-16-1-16-1-9-1-17-8-19-17l-5-35c-1-9-9-18-17-20l-32-13c-7-5-20-4-27 2l-28 21c-7 5-18 5-25-1l-23-23c-5-7-6-18-1-25l21-28c6-7 7-19 3-27l-13-32c-3-8-12-16-21-17l-35-5c-9-1-17-9-17-18 0 0-1-6-1-17 0-10 1-16 1-16 0-9 8-17 17-18l35-5c9-1 18-9 21-17l13-32c4-8 3-20-3-27l-21-28c-5-7-6-17-2-21 3-5 14-16 14-16 0 0 4-3 8-7 4-4 22-10 29-5l28 21c7 6 20 7 27 2l32-13c8-2 16-12 17-20l5-35c2-9 10-17 19-17 0 0 5-1 16-1 11 0 16 1 16 1 9 0 17 8 19 17l5 35c1 8 9 18 17 20l32 13c7 5 20 4 27-2l28-21c7-5 18-5 25 1l23 23c5 7 6 18 1 25l-21 28c-6 7-7 19-3 27l13 32c3 8 12 16 21 17l35 5c9 1 17 9 17 18 0 0 1 6 1 16 0 11-1 17-1 17 0 9-8 17-17 18z"/>
<glyph glyph-name="comments" unicode="&#104;" d="M410 128l-314 0 64 64 288 0 0 256 32 0c32 0 32-14 32-32l0-416z m-26 96l-256 0-128-128 0 384c0 18 14 32 32 32l352 0c18 0 32-14 32-32l0-224c0-18-14-32-32-32z"/>
<glyph glyph-name="contacts" unicode="&#105;" d="M400 192l-185 0c0 0-1 37 3 45 6 9 25 14 43 22 19 8 23 10 23 10l0 18c0 0-7 5-9 22-4-1-9 6-9 10 0 4 1 15 6 14-1 8-2 16-2 20 2 14 16 29 37 29 22 0 36-15 37-29 1-4 0-12-1-20 5 1 6-10 6-14-1-4-5-11-9-10-2-17-9-22-9-22l0-18c0 0 4-2 23-10 18-8 37-13 42-22 5-8 4-45 4-45m64 320l-384 0c-18 0-32-14-32-32l0-64 48 0c9 0 16-7 16-16 0-9-7-16-16-16l-64 0c-9 0-16-7-16-16 0-9 7-16 16-16l16 0 0-64 48 0c9 0 16-7 16-16 0-9-7-16-16-16l-64 0c-9 0-16-7-16-16 0-9 7-16 16-16l16 0 0-64 48 0c9 0 16-7 16-16 0-9-7-16-16-16l-64 0c-9 0-16-7-16-16 0-9 7-16 16-16l16 0 0-64c0-18 14-32 32-32l384 0c18 0 32 14 32 32l0 448c0 18-14 32-32 32"/>
<glyph glyph-name="dashboard" unicode="&#106;" d="M32 64c0-18 14-32 32-32l96 0 0 288-128 0z m416 416l-384 0c-18 0-32-14-32-32l0-96 448 0 0 96c0 18-14 32-32 32z m-256-448l256 0c18 0 32 14 32 32l0 256-288 0z"/>
<glyph glyph-name="dots" unicode="&#107;" d="M146 256c0-40-32-73-73-73-40 0-73 33-73 73 0 40 33 73 73 73 41 0 73-33 73-73z m183 0c0-40-33-73-73-73-40 0-73 33-73 73 0 40 33 73 73 73 40 0 73-33 73-73z m183 0c0-40-33-73-73-73-41 0-73 33-73 73 0 40 32 73 73 73 40 0 73-33 73-73z"/>
<glyph glyph-name="expand" unicode="&#108;" d="M448 338c0-15-12-27-27-27-15 0-28 12-28 27l0 17-63-63c-5-5-10-9-19-9-16 0-28 13-28 28 0 9 4 15 9 19l63 63-17 0c-15 0-27 12-27 28 0 15 12 27 27 27l110 0 0-27c0 0 0 0 0 0z m-291-219l17 0c15 0 27-12 27-28 0-15-12-27-27-27l-110 0 0 110c0 15 12 27 27 27 16 0 28-12 28-27l0-17 63 63c5 5 10 9 19 9 16 0 28-13 28-28 0-9-4-15-9-19z"/>
<glyph glyph-name="filter" unicode="&#109;" d="M480 480l-448 0 0-49 176-223 0-128 96-48 0 176 176 223z"/>
<glyph glyph-name="help" unicode="&#110;" d="M400 188c10 21 16 44 16 68 0 24-6 47-16 68l32 8 32 8c10-26 16-54 16-84 0-30-6-58-16-84z m-144-60c-71 0-128 57-128 128 0 71 57 128 128 128 71 0 128-57 128-128 0-71-57-128-128-128z m0-96c-30 0-58 6-84 16l16 64c21-10 44-16 68-16 24 0 47 6 68 16l8-32 8-32c-26-10-54-16-84-16z m-144 156l-32-8-32-8c-10 26-16 54-16 84 0 30 6 58 16 84l64-16c-10-21-16-44-16-68 0-24 6-47 16-68z m144 292c30 0 58-6 84-16l-16-64c-21 10-44 16-68 16-24 0-47-6-68-16l-8 32-8 32c26 10 54 16 84 16z m0 32c-141 0-256-115-256-256 0-141 115-256 256-256 141 0 256 115 256 256 0 141-115 256-256 256z"/>
<glyph glyph-name="home" unicode="&#111;" d="M78 32l178 0 0 153 89 0 0-153 89 0 0 197-178 175-178-175z m178 448l256-251-56 0-200 196-200-196-56 0z"/>
<glyph glyph-name="page" unicode="&#112;" d="M32 0l0 320 192 0 0 192 256 0 0-512z m160 512l0-160-160 0z"/>
<glyph glyph-name="pencil" unicode="&#113;" d="M493 313l-22-22-181 180 22 23c25 25 66 25 91 0l90-91c12-12 19-28 19-45 0-17-7-33-19-45z m-405-134l-46 46 217 216 46-45z m-88-177l0 127 128-127z m327 371l46-45-217-216-46 45z m113-113l-216-216-46 45 217 217z"/>
<glyph glyph-name="re" unicode="&#114;" d="M342 299l0-86 171 129-171 130 0-81c-207 0-214-221-214-221 59 96 102 129 214 129z m42-207l-333 0 0 242 77 0c0 0 19 27 57 52l-159 0c-15 0-26-12-26-26l0-294c0-14 11-26 26-26l384 0c14 0 26 11 26 26l0 147-52-42z"/>
<glyph glyph-name="rollup" unicode="&#115;" d="M118 229c-14 0-27-13-27-27 0-15 13-28 27-28l16 0-62-62c-5-5-8-10-8-19 0-15 11-27 27-27 8 0 15 3 19 8l63 62 0-16c0-14 13-27 27-27 14 0 27 13 27 27l0 110-109 0z m330 192c0 14-11 27-27 27-8 0-15-3-19-8l-63-62 0 16c0 14-13 27-27 27-14 0-27-13-27-27l0-109 110 0c15 0 27 13 27 27 0 14-12 27-27 27l-16 0 63 63c3 4 6 9 6 19z"/>
<glyph glyph-name="share" unicode="&#117;" d="M396 171c-19 0-37-7-51-18l-146 89c1 5 1 9 1 14 0 5 0 9-1 14l146 89c14-11 32-18 51-18 46 0 84 39 84 86 0 47-38 85-84 85-46 0-84-38-84-85 0-5 0-10 1-14l-146-89c-14 11-32 17-51 17-46 0-84-38-84-85 0-47 38-85 84-85 19 0 37 6 51 17l146-89c-1-4-1-9-1-14 0-47 38-85 84-85 46 0 84 38 84 85 0 47-38 86-84 86z"/>
<glyph glyph-name="star" unicode="&#118;" d="M512 305c0 12-10 22-23 22-1 0-1 0-2 0l-156 3-53 142c-3 9-12 16-22 16-10 0-19-7-22-16l-53-142-156-3c-1 0-2 0-2 0-13 0-23-10-23-22 0-8 4-15 10-19l125-89-45-141c-1-3-2-6-2-10 0-12 10-22 22-22 6 0 10 2 14 5l132 85 131-85c4-3 9-5 14-5 13 0 23 10 23 22 0 4-1 7-3 10l-44 141 124 89c7 4 11 11 11 19"/>
<glyph glyph-name="users" unicode="&#119;" d="M352 96c0 82-29 97-90 120-3 0-5 1-8 2 8 11 14 24 20 36 11 4 24 10 39 16-10 7-19 17-27 28 1 7 2 15 2 22 0 31-11 60-30 82 8 45 47 78 94 78 53 0 96-43 96-96 0-39-24-90-57-114 95-41 121-29 121-110l0-64z m-153 110c95-41 121-29 121-110l0-64-320 0 0 64c0 81 25 69 121 110-34 24-57 75-57 114 0 53 43 96 96 96 53 0 96-43 96-96 0-39-24-90-57-114z"/>
<glyph glyph-name="wallet" unicode="&#120;" d="M464 152l-96 0 0 164 64 0 0 32-71 0c-8 19-23 36-39 44l-42 22 152 0 0 33-216 0-128 65 376 0c18 0 32-15 32-33l0-294c0-18-14-33-32-33z m-128 164l0-295c0-13-7-21-17-21-4 0-8 1-12 3l-262 134c-16 9-29 30-29 48l0 294c0 14 7 21 17 21 4 0 8 0 12-3l262-134c16-8 29-29 29-47z m-96-66c-18 0-32-22-32-49 0-27 14-49 32-49 18 0 32 22 32 49 0 27-14 49-32 49z"/>
<glyph glyph-name="minus" unicode="&#121;" d="M457 302l0-55c0-8-3-14-8-20-5-5-12-8-19-8l-348 0c-7 0-14 3-19 8-5 6-8 12-8 20l0 55c0 7 3 14 8 19 5 5 12 8 19 8l348 0c7 0 14-3 19-8 5-5 8-12 8-19z"/>
<glyph glyph-name="pencil-thin" unicode="&#122;" d="M140 73l26 26-67 67-26-26 0-30 37 0 0-37z m150 265c0 4-2 7-7 7-1 0-3-1-4-2l-155-155c-2-2-2-3-2-5 0-4 2-6 6-6 2 0 4 0 5 2l155 154c1 2 2 3 2 5z m-16 55l119-119-238-237-118 0 0 118z m195-27c0-10-3-19-10-26l-48-47-118 118 47 48c7 7 15 10 26 10 10 0 18-3 26-10l67-67c7-8 10-16 10-26z"/>
<glyph glyph-name="close" unicode="&#65;" d="M426 134c0-7-3-14-8-19l-39-39c-5-5-12-8-20-8-7 0-14 3-19 8l-84 84-84-84c-5-5-12-8-19-8-8 0-15 3-20 8l-39 39c-5 5-8 12-8 19 0 8 3 14 8 20l84 84-84 84c-5 5-8 12-8 19 0 8 3 14 8 20l39 38c5 6 12 8 20 8 7 0 14-2 19-8l84-84 84 84c5 6 12 8 19 8 8 0 15-2 20-8l39-38c5-6 8-12 8-20 0-7-3-14-8-19l-84-84 84-84c5-6 8-12 8-20z"/>
<glyph glyph-name="speed" unicode="&#97;" d="M444 40c-5-5-12-8-19-8-1 0-3 0-4 0-4 0-8 1-10 5-2 0-3 1-4 2-3 3-44 48-44 48-5 5-4 14 1 19 5 5 13 6 19 1l36-15c22 29 35 64 40 100l-61 10c-7 1-13 7-13 14 0 8 6 14 13 15l61 10c-3 28-12 55-25 79l32 36c2 2 3 4 4 5 26-41 42-90 42-143 0-66-24-129-68-178z m-115 201c9-28 3-59-18-80-31-31-79-31-110 0-30 30-30 81 0 111 22 22 52 28 78 19l131 121c10 10 26 9 36-1 10-10 10-27 1-37z m-73 2c-14 0-26-12-26-27 0-14 12-26 26-26 14 0 26 12 26 26 0 15-12 27-26 27z m102 156c-24 14-50 23-78 27l-10-65c0-7-7-13-14-13-7 0-14 6-14 13l-10 65c-39-5-74-21-103-45l33-48c5-5 4-14-1-19-5-6-14-6-19-2l-47 35c-23-30-38-67-42-106l61-10c7-1 13-7 13-15 0-7-6-13-13-14l-61-10c5-36 18-71 40-100l36 15c6 5 14 4 19-1 5-5 6-14 1-19 0 0-41-45-44-48-1-1-2-2-3-2l0 0c-3-4-7-5-11-5-8-1-17 2-23 8-44 49-68 112-68 178 0 145 115 262 256 262 53 0 101-16 142-44-2-2-4-3-5-4z"/>
<glyph glyph-name="menu-addl" unicode="&#66;" d="M16 464l96 0 0-96-96 0z m192 0l96 0 0-96-96 0z m192 0l96 0 0-96-96 0z m-384-160l96 0 0-96-96 0z m192 0l96 0 0-96-96 0z m192 0l96 0 0-96-96 0z m-384-160l96 0 0-96-96 0z m192 0l96 0 0-96-96 0z m192 0l96 0 0-96-96 0z"/>
<glyph glyph-name="search" unicode="&#116;" d="M510 51l-147 147c23 32 35 72 35 114 0 110-89 198-198 198-110 0-198-89-198-198 0-110 89-198 198-198 42 0 82 12 114 35l147-147c3-4 6-4 9 0l40 40c2 3 2 8 0 9z m-312 111c-84 0-152 68-152 152 0 83 69 152 152 152 84 0 152-69 152-152 0-84-67-152-152-152z"/>
<glyph glyph-name="edit" unicode="&#67;" d="M112 243l33 0-16 37z m379 129l-43 0 0-225 43 0c11 0 21 9 21 20l0 184c0 12-10 21-21 21z m-171 0l-299 0c-11 0-21-9-21-21l0-184c0-11 10-20 21-20l299 0z m-132-173c-3-3-7-4-11-4-3 0-6 1-9 2-3 2-4 4-6 7l-6 14-56 0-6-14c-1-3-3-5-6-7-2-1-5-2-8-2-2 0-4 0-5 1-2 0-4 1-5 2-2 1-3 3-4 5-1 1-2 4-2 6 0 2 1 4 2 6l48 99c2 6 8 9 15 9 7 0 12-3 15-9l47-99c1-2 1-4 1-6 0-4-2-7-4-10z m260-117l-32 0 0 354 32 0c9 0 16 8 16 16 0 9-7 16-16 16l-128 0c-9 0-16-7-16-16 0-8 7-16 16-16l32 0 0-354-32 0c-9 0-16-7-16-16 0-9 7-16 16-16l128 0c9 0 16 7 16 16 0 9-7 16-16 16z"/>
<glyph glyph-name="chart" unicode="&#68;" d="M288 288l0 224c124 0 224-100 224-224z m-64-288c-124 0-224 100-224 224 0 124 100 224 224 224l0-224 224 0c0-124-100-224-224-224z"/>
<glyph glyph-name="zigzag" unicode="&#69;" d="M320 96c-12 0-24 7-29 18l-64 128-38-94c-4-10-12-17-23-19-10-3-21 1-29 8l-65 65-12-24c-8-16-27-22-43-15-15 8-22 27-14 43l32 64c4 9 13 16 24 17 10 2 20-1 27-9l62-61 46 115c5 11 16 19 29 20 12 0 24-7 30-18l63-126 70 187c4 11 14 19 26 21 12 1 24-4 31-14l64-96c9-15 5-35-9-45-15-10-35-6-45 9l-29 44-75-197c-4-12-15-20-28-21 0 0-1 0-1 0z"/>
<glyph glyph-name="tablet" unicode="&#70;" d="M402 0l-288 0c-36 0-64 29-64 64l0 384c0 35 28 64 64 64l288 0c35 0 64-29 64-64l0-384c0-35-29-64-64-64z m-144 32c17 0 31 14 31 32 0 17-14 31-31 31-18 0-32-14-32-31 0-18 14-32 32-32z m144 417l-289 0 0-320 289 0z"/>
<glyph glyph-name="widget" unicode="&#71;" d="M0 273l0 239 239 0 0-239z m273 0l0 239 239 0 0-239z m0-273l0 239 239 0 0-239z m-273 0l0 239 239 0 0-239z"/>
<glyph glyph-name="map" unicode="&#72;" d="M32 0l0 432 128 80 0-432z m160 96l0 416 128-96 0-416z m160-96l0 416 128 96 0-416z"/>
<glyph glyph-name="chart-2" unicode="&#73;" d="M0 0l0 192 128 0 0-192z m192 0l0 320 128 0 0-320z m192 0l0 512 128 0 0-512z"/>
<glyph glyph-name="doc" unicode="&#74;" d="M32 352l0-352 351 0 0 416-255 0z m383 160l-192 0-95-64 287 0 0-352 63 0 0 416z"/>
<glyph glyph-name="question" unicode="&#75;" d="M328 402c-20 17-44 25-73 25-19 0-36-5-53-13-17-9-30-21-39-36-6-10-9-20-9-29 0-8 2-14 7-19 5-5 11-7 18-7 8 0 16 4 22 13 12 16 18 24 18 24 9 9 20 13 34 13 13 0 23-3 31-10 9-7 13-16 13-29 0-14-5-25-13-33-7-5-17-10-32-15-12-4-19-8-23-11-4-4-6-9-6-17l0-45c0-9 3-17 7-23 5-6 12-9 21-9 14 0 23 7 26 21 1 5 2 18 2 37 25 5 44 16 58 32 15 16 22 37 22 62-1 28-11 51-31 69z m-100-306c7-7 15-10 23-10 9 0 17 3 23 9 6 6 9 14 9 23 0 9-3 17-9 23-6 6-14 9-23 9-9 0-16-3-23-9-6-6-9-14-9-23 0-9 3-16 9-22z m28-96c-141 0-256 115-256 256 0 141 115 256 256 256 141 0 256-115 256-256 0-141-115-256-256-256z"/>
<glyph glyph-name="user" unicode="&#76;" d="M480 79c-20 31-74 51-105 62-32 12-42 19-50 30-9 10-5 57-5 57 0 0 17 24 23 40 6 15 7 44 7 44 0 0 14 10 18 21 4 12 7 33 5 42-3 9-14 6-14 6 0 0 0 16 0 29 1 18-4 102-102 102-98 0-103-84-102-102 0-13 0-29 0-29 0 0-12 3-14-6-2-9 1-30 5-42 3-11 18-21 18-21 0 0 1-29 7-44 6-16 23-40 23-40 0 0 3-47-5-57-8-11-18-18-50-30-31-11-85-31-105-62-21-32-17-70-13-75 3-4 19-4 30-4 36 0 120 0 206 0 87 0 171 0 207 0 11 0 26 0 30 4 3 5 6 44-14 75z"/>
<glyph glyph-name="notebook" unicode="&#77;" d="M416 0l-322 0c-17 0-32 14-32 32l0 384c0 18 15 32 32 32l32 0 0-80c0-9 7-16 16-16l225 0c9 0 16 7 16 16l0 80 32 0c18 0 32-14 32-32l0-384c1-18-13-32-31-32z m-80 384l-161 0c-9 0-16 7-16 16l0 64c0 9 7 16 16 16l48 0 0 16c0 9 7 16 16 16l32 0c9 0 16-7 16-16l0-16 48 0c9 0 16-7 16-16l0-64c1-9-7-16-15-16z"/>
<glyph glyph-name="mail" unicode="&#78;" d="M480 448l-448 0c-18 0-32-14-32-32l0-24 256-135 256 135 0 24c0 18-14 32-32 32z m-224-256c-9 0-16 3-32 11l-224 117 0-224c0-18 14-32 32-32l448 0c18 0 32 14 32 32l0 224-224-117c-16-8-23-11-32-11z"/>
<glyph glyph-name="close-2" unicode="&#79;" d="M512 427l-85 85-171-171-171 171-85-85 171-171-171-171 85-85 171 171 171-171 85 85-171 171z"/>
<glyph glyph-name="pen" unicode="&#80;" d="M453 333l51 52c18 17 0 34 0 34l-85 85c0 0-17 18-34 0l-52-51z m-308-307l-145-26 26 145z m17 17l274 273-120 120-273-274z"/>
<glyph glyph-name="arrow-down" unicode="&#81;" d="M0 348l256-255 256 255-77 76-179-178-179 178z"/>
<glyph glyph-name="arrow-left" unicode="&#82;" d="M345 515l-255-256 255-256 76 76-178 180 178 179z"/>
<glyph glyph-name="arrow-right" unicode="&#83;" d="M167 3l254 256-254 256-77-77 179-179-179-180z"/>
<glyph glyph-name="arrow-top" unicode="&#84;" d="M512 169l-256 255-256-255 77-76 179 178 179-178z"/>
<glyph glyph-name="check-circle" unicode="&#85;" d="M358 374l55-53-208-208-3 3-52 51-64 64 55 54 64-64z m-102 138c-141 0-256-115-256-256 0-141 115-256 256-256 141 0 256 115 256 256 0 141-115 256-256 256z"/>
<glyph glyph-name="cam-photo" unicode="&#86;" d="M466 309l-66 0 0 34 66 0z m-210-198c-57 0-103 47-103 105 0 58 46 105 103 105 57 0 103-47 103-105 0-58-46-105-103-105z m189 285l-67 0c0 1 0 1-1 2l-6 16c-9 23-37 42-61 42l-108 0c-24 0-52-19-61-42l-6-16c-1-1-1-1-1-2l-67 0c-37 0-67-31-67-68l0-204c0-37 30-68 67-68l378 0c37 0 67 31 67 68l0 204c0 37-30 68-67 68z"/>
<glyph glyph-name="cam-video" unicode="&#87;" d="M480 61l0 0-117 117 0-74c0-24-20-43-43-43l-277 0c-24 0-43 19-43 43l0 298c0 24 19 43 43 43l277 0c24 0 43-19 43-43l0-75 117 117 0 1c18 0 32-15 32-32l0-320c0-17-14-32-32-32z"/>
<glyph glyph-name="sound" unicode="&#88;" d="M312 343c32-22 53-58 53-99 0-40-18-74-47-96l-20 15c26 17 43 47 43 81 0 35-19 66-48 83z m57 48c43-35 70-89 70-148 0-55-24-106-62-141l-20 15c35 31 57 76 57 126 0 53-25 101-64 132z m60 51c51-46 83-113 83-187 0-75-34-144-87-190l-20 15c51 42 83 105 83 175 0 68-30 129-77 171z m-353-109l-51 0c-25 0-25-26-25-26l0-103c0 0 0-25 25-25l51 0 196-117 0 386z"/>
<glyph glyph-name="earth" unicode="&#89;" d="M412 177c0-1 0 0 0 0 0 0 0 1 0 1 0 0 0 1 0 0 0 0 0-1 0-1z m-80 47c1 2 17 4 18 2 1-2-1-4-4-5-3 0-8-2-10-2-3 0-6 3-4 5z m-6 25c1-1 4-6 4-7 0-1-1-1-2 2-2 1-4 6-2 5z m-7-4c0-2 0-2-1-1 0 1-1 5 0 5 0 1 1-3 1-4z m-2 12c2 0 4 0 6 0-3-2-5-2-6 0z m5-39c0 0-2-2-3-2-1-1-3 0-3 0 0 1 3 3 4 3 1 0 2 0 2-1z m-4 9c-1 0-5 3-7 4-1 1-7 3-10 3-3 1-10 0-8 2 3 1 16 3 18 2 2-1 10-4 12-5 3-1 9-4 9-5 0 0-2-1-4-1-2 0-9-1-10 0z m42-4c-1-1-4-1-3 1 1 1 5 1 5 1 1 0 0-1-2-2z m14-7c0-1 0-2-1-1-1 1-1 4-1 5 1 0 2-2 2-4z m38-49c0-1 0-5-1-8 0-3-2-18-3-25-1-7-3-17-4-18 0-1-3-5-4-7-1-1-4-6-5-7-1-1-3-7-3-8 0 0-1-3-2-7-2-3-5-10-6-10 0-1-1-2-2-3 0 0-2-5-3-6-1-2-7-7-7-8 0 0-1-3-2-4 0-2-7-7-8-7-1-1-3-2-3-3-1 0-3-3-4-4-1 0-4-2-4-2 0 0-1-1 0-1 1 0 3 0 3-1 0 0-2-1-3-2-1 0-2-1-3-1 0-1-4-4-5-5-1-1-2-2-1-2 1 0 1-1 0-2-2-2-6-4-6-5 0 0 1-1 1-1 0 0 2-3 3-3 1 0 3-1 2-1 0 0-5-2-6-2-2 0-6 1-8 1-1 0-5 4-6 4-1 0-1 1-1 1 0 0-1 0-1 0 0 1 1 2 1 2 0 0-1 1 0 1 0 0 3 2 3 2 0 0 1 1 1 1 1 0-1 1-1 1-1 0-2 0-2 0 0 1 2 3 2 4 1 0 2 2 2 2 1 1 1 3 0 3 0 1 1 4 1 4 0 1 3 4 4 5 1 1 2 4 2 5 0 1 0 4 0 5 0 2 2 9 2 11 1 2 3 10 3 13 1 2-1 8-2 10-1 2-9 5-11 6-2 0-6 2-8 3-1 1-6 5-7 7-1 2-4 8-6 10-2 1-5 6-5 7 1 1 5 10 5 12-1 2 0 10 0 11 1 1 8 8 10 11 2 2 2 10 2 13-1 3-8 7-8 6-1-1-4-3-6-3-2 1-13 6-16 6-2 1-8 8-9 10-2 3-9 6-14 7-4 1-20 5-26 5-5 1-18 4-22 6-3 1-13 9-13 12-1 3-4 10-6 13-2 3-12 17-14 21-3 4-9 10-9 8 0-3 5-13 6-16 1-2 4-9 5-10 0-2 2-3 1-4 0 0-3 0-5 2-2 1-7 9-8 11-1 2-4 7-4 9 0 1 0 4-1 5-1 1-4 10-4 13-1 2-4 10-6 11-2 1-9 5-9 7 0 2-1 11-2 11 0 1-2 3-2 4 0 0-1 5-1 11 1 5 3 18 4 21 1 4 6 16 7 17 0 1 0 7 1 7 0 1 1 4 0 5-1 2-9 6-8 8 0 1 2 3 2 4 1 1 3 4 2 7 0 3-5 10-6 10-1 0-2-3-2-5 0-1-1-4-2-3-1 1 1 6 1 7 1 2 6 3 6 4 0 0-1 2-1 2-1 1-3 3-3 6 0 2-2 8-1 9 0 2 0 4-1 6-1 1-3 4-5 6-3 1-11 3-11 3 0 1 1 3 1 3-1 0-5-2-9-5-3-4-11-7-12-7 0 0 0 1-1 1-1-1-3-4-4-5-1-1-3-4-4-6-2-1-9-8-12-11-3-3-11-12-13-15-3-2-7-6-7-5 1 1 3 4 5 6 2 3 6 7 7 8 1 2 6 8 8 10 1 2 6 7 6 7 0 1-2 1-4 1-2-1-4-1-4 1 1 1 1 4 1 5-1 1-2 3-1 4 0 0 1 1 1 2 1 0 0 1 0 1 0 0 1 3 3 5 2 3 8 8 10 9 2 1 7 4 8 5 2 2 2 3 1 3-1 0-3-1-4-1-1 0-3 0-3 1 0 1 3 7 5 8 2 1 6 4 7 4 0 0 2 0 2 0 0-1 0-2 0-3 1 0 4 2 5 3 1 1 1 3 1 3 0 0 0 1 0 1 0 1 2 4 3 5 1 1 4 3 5 3 2 1 10 4 12 5 2 1 7 2 8 2 1 1 5 2 8 3 2 0 7 1 9 1 1 0 8-1 10-1 2-1 10-1 12-1 1 0 6-1 7-2 1 0 4 0 6 0 1 1 10 3 12 4 3 0 8 0 9 1 2 0 5 0 5 0 0 0 1-1 3-2 2 0 13-4 16-5 2-1 9-1 10-1 0 1 0 2-2 2-1 1-3 3-3 3 0 0 3 1 4 1 0 0 0 1-1 2-2 1-3 2-6 3-2 0-8-1-9 0-1 1 1 2 3 3 2 1 8 2 8 2 1 1 2 1 3 1 1 0 6 0 9 0 2 0 6-1 6-2-1 0-1-1 0-1 1 0 4-1 4-1 0-1 0-1 1-2 2 0 5 0 7 1 2 1 7 2 8 2 1 0 4-1 4-1 1 0 0-2-1-3-1-1-2-7-1-7 1-1 3-4 2-4 0 0-3 0-3 0 0-1-2-2-4-1-2 0-8 0-8 0-1-1 1-3 4-4 3-1 13-2 14-2 1 1 2 2 2 3 1 0 3 1 5 2 1 1 4 4 4 5 0 0-2 4-2 4 0 0 1 2 0 3-1 2 3 4 4 4 1 0 3 0 3 0 0-1 2-1 2-1 1 0 4-1 7-1 3-1 8-2 8-2-1-1-2-2-3-2-1 0-5 0-6 0-1 0-1-4-1-5 1-2 1-5 1-5-1-1-2-2-1-2 0 0 3-2 4-2 1-1 3-2 3-3 1 0 1-4 2-4 1 0 4 1 4 2 1 1 2 2 2 2 1 1 1 2 1 2 1 0 0 2-1 3-2 0-6 1-6 2 0 0-1 1 0 1 0 0 1 1 0 2-1 1-1 2-1 2-1 1 0 2 1 3 1 0 5 2 7 2 1 1 7-1 7-1 0 0 2-1 4-1 2-1 9-3 11-5 2-1 6-8 7-8 1-1 4-3 4-4 0-1 3-3 4-3 0 0 2-1 3-3 1-2 3-7 2-7 0 0 0-2 1-3 1-1 3-3 3-4 1-1 3-5 4-5 0-1 1-2 0-4-1-1-2-4-3-4 0 0-2 3-3 4-1 1-2 2-3 2 0 0-1-1 1-4 1-2 3-6 3-8 0-1-4-2-5-3 0 0-1 0-2 1-1 0-5 5-6 6 0 2-4 4-6 6-2 1-4 4-6 3-1 0-5 3-5 4 0 1 0 2 0 2 1 0 5 0 5-1 1 0 3-1 4 0 0 1 1 4 2 4 1 1 3 3 2 4 0 2-4 6-5 7-1 1-5 5-5 5 0 0 0 1-1 1-1 0-4 1-4 1 0 1-2 1-2 2-1 0-3 0-3 0 0 0 0-1 0-2 0-1 0-3 0-3 0-1-1-3-1-5 0-2-2-4-4-3-2 0-7 0-7 0-1-1 2-4 3-5 1-1 3-3 5-4 2-1 4-3 4-3 0-1-1-2-1-2 1 0 1-1 0-1-1 1-7 3-8 3-2 1-5-1-5-1-1 0-2 2-2 4 0 2 3 6 3 7 0 0-2 1-3 0-2 0-8-3-10-4-1-1-4-3-4-3-1-1-3-4-6-5-3-1-8-6-9-8 0-2-2-8-1-9 0 0 1-4 1-4 0-1 2-4 4-4 2-1 9-5 12-8 3-2 12-9 12-10 1-1 2-10 2-12 1-2 5-3 6-2 1 0 1 7 1 8 0 2 2 6 4 8 2 1 8 7 8 8 0 2-5 6-5 7 0 1 1 3 1 4 2 0 3 4 3 6 0 2 0 8 0 8 1 1 5-1 7-1 2-1 6-4 7-5 1-2 3-4 4-4 1 0 2 0 3-1 0-1 1-5 0-7 0-2 3-7 5-7 2 0 5 4 5 5 0 2 2 1 3-1 0-2 3-14 5-18 1-3 7-10 7-11 0-2 2-10 3-13 0-3 2-10 2-11 1-1 3-3 3-5 1-2 1-7 0-7-1-1-1-2-1-2 0 0-1 2-1 2-1 1-3 1-3 1 0 0 0 2-1 3 0 1-3 2-4 2-1 1-2 3 0 6 1 1 4 7 4 8 0 0 0 1 0 1 0 0-2 1-4 0-2-1-8-3-9-3-1 1-6 3-8 4-1 0-3-2-2-3 1-1 4-3 4-3 1-1 2-3 1-3 0 0-1-2 0-2 0-1 4-4 5-5 1 0 4-4 5-5 0-2-2-4-3-4-2 0-8-2-8-3-1-1-4-1-6 1-1 1-8 2-9 1-1-1-3-6-4-7 0-1-2-5-3-5-1 0-5-1-7-2-1-1-5-9-7-11-1-2-4-10-4-12 0-2-3-7-6-9-2-1-9-6-10-8-2-1-7-7-8-9 0-2 3-10 6-17 0 0 0 0 0-5 0-2 0-2 0-2 0-1-1-2-1-2 0-1-4 1-5 2-1 1-5 6-6 8-1 2-5 9-6 9-1 0-4 2-4 2-1 1-7 2-11 1-4-1-10-7-14-6-4 0-14-1-17-2-3-1-12-14-15-22 0 0-1-5-1-9 0-2 0-2 0-2 0-3 1-5 1-7 1-1 3-6 4-7 1-1 10-3 13-3 2-1 9 2 10 3 1 0 4 6 5 7 1 2 4 4 5 4 1 0 4 1 4 1 1 1 5 1 5 0 0-1-1-8-2-10-1-2-5-8-6-10 0-2 7-5 10-5 2 0 9 0 10 0 1 0 2-4 1-7-1-3-1-10 0-12 1-2 8-4 11-3 3 1 10 1 11 1 2 0 8 2 12 5 4 4 11 11 12 10 2 0 12-1 12-2 0 0 3-1 4-1 2 0 8 1 10 2 2 1 6 2 6 3 1 1 1 2 2 2 1 0 1-3 1-4 0-1 1-4 3-7 2-2 6-4 7-5 2 0 6 0 8 0 1-1 5-8 5-9 0-1 1-5 4-5 2 0 5-1 5-1 0 0 2 2 3 2 1 1 2 1 2 0 0 0 0-5 0-6z m-59-144c-1 0-5-1-5 0 1 1 6 2 7 2 1 0-1-1-2-2z m-293 344c-1-3-4-9-4-8 0 1 0 2 0 2 0 0 1 2 2 3 0 2 2 5 2 7 1 1 2 2 2 2 1-1 0-3-2-6z m-7-15c0-1 0-1 0 0 0 0 1 2 1 2 0-1-1-2-1-2z m-1-5c0 0 0 0 0 0 0 0 0 1 0 0 1 0 1 0 0 0z m211 145c1 0 4 0 5 0 1 0 3 0 4 0 0 0 2 0 3 0 0 0 2 0 3 0 0 0 0 0 0 0-1 0 0 0 1 0 0 0 1 0 1 0-1 0-1 0-2 0 1 0 3 0 4 0 1 0 3-1 3-1 1 0 3 1 4 1 0 0 3 0 3 0 1 0 2-1 3-1 1 0 4 0 5 0 1 0 2 1 3 1 0 0 2-1 3-1 0 0 5 0 6 0 1 0 3 0 4-1 0 0 0-1-1-1 0 0 1-1 2-1 1-1 5-3 4-3-1 0-2 0-3 0 0 1-3 2-4 2-1 0-5 1-6 1 0 1-4 2-5 2-1 1-4 1-5 1 0 0-1 0 0 0 0 0-1-1-1-1-1 0-5 0-9 0-4 0-12 0-15 1-2 0-6 1-6 1-1 0-3 0-3 0-1 0-2 0-2 0 0 0 0 0 0 0 0 0 0 0 0 0 0 0 1 0 1 0z m26 1c2 0 4 0 4 0 0 0 2 0 3 0 1 0 2 0 3 0 0 0 0 0 0 0-1 0-8-1-10-1-3 0-2 1 0 1z m20 0c0 0 5 0 6 0 1 0 5 0 5 0 1 0 6 0 6-1 1 0 0 0 0 0-1 0-3 0-4 0 0 0-2 0-2 0 1 0 1 1 1 1 0 0-2 0-2 0 0 0-2-1-2-1 0 0-5 0-6 0-1 1-4 1-4 1 0 0 1 0 2 0z m23-6c1-1 4-2 6-2 1 0 10-2 10-2 1-1 2-2 2-3 0-1-7-1-10 0-3 1-14 5-15 6-1 0 0 3 2 3 2 0 5-1 5-2z m19 6c0 0-1 1-3 2-28 11-59 17-92 17-141 0-256-115-256-256 0-141 115-256 256-256 141 0 256 115 256 256 0 108-67 200-161 237z"/>
<glyph glyph-name="mail-2" unicode="&#90;" d="M464 438l-416 0c-27 0-48-21-48-48l0-256c0-26 21-48 48-48l416 0c27 0 48 22 48 48l0 256c0 27-21 48-48 48z m-416-32l416 0c4 0 8-1 11-4-78-56-149-118-219-182-70 64-141 126-219 182 3 3 7 4 11 4z m-16-272l0 256c0 5 2 8 4 11 42-48 86-94 130-139-44-44-88-90-130-138-2 2-4 6-4 10z m432-16l-416 0c-4 0-8 2-11 5 52 37 102 78 149 120 20-19 39-38 59-56l11-11 11 11c19 18 39 37 58 56 48-42 97-83 149-120-2-3-6-5-10-5z m16 16c0-4-2-8-4-10-42 48-86 94-130 138 45 45 89 91 130 139 2-3 4-6 4-11z"/>
<glyph glyph-name="upload" unicode="&#48;" d="M189 104l134 0 0 237 66 0-133 171-136-171 69 0z m304-36l0 102-67 1 0-104-340 0 0 104-67 0 0-171 474 0z"/>
<glyph glyph-name="dropbox" unicode="&#49;" d="M62 325l-51 78 158 109 83-81z m108-192l-170 129 62 62 190-106z m81-133l-192 108-1 68 108-73 86 78 80-78 108 68 0-61z m82 132l-80 86 190 106 55-67z m110 193l-190 106 104 81 155-114z"/>
<glyph glyph-name="google-drive" unicode="&#50;" d="M508 153l-70-125-1-2-335 0 5 7 69 125 1 3 335 0z m-4 37l-140-1-3 0-1 3-162 288-4 7 8 0 140 1 3 0 1-3 162-288 4-7z m-262 146l-162-288-4-8-4 7-70 125-2 2 1 3 162 288 4 7 4-7 71-124 1-3z"/>
<glyph glyph-name="yandex-disk" unicode="&#51;" d="M496 316c1 0 3-1 4-1-1 0-2 1-4 1z m-487-117c-4-4-7-8-9-11 3 3 5 7 9 11z m224 107c145 38 223 24 253 14-33 11-98 20-132 39-32 18-66 72-150 50-85-22-85-84-104-117-16-27-66-67-91-93 24 24 85 70 224 107z m43 80c8 2 21 0 31-7 14-10 18-24 3-28-16-4-35 6-41 18-4 8-1 15 7 17z m-62-10c13 3 26-3 29-13 3-11-5-23-18-26-13-3-26 3-29 13-3 11 5 22 18 26z m-82-43c6 11 15 19 23 21 8 2 15-2 15-11 1-13-11-31-26-35-15-4-19 10-12 25z m380-55c-11 38-130 35-269-1-139-36-244-93-233-131 7-25 66-39 146-35 34-3 79 2 127 14 48 13 89 30 116 49 74 36 120 78 113 104z m-234-135c-60-15-111-20-115-5-5 15 41 39 102 55 60 15 112 17 116 2 4-15-43-36-103-52z"/>
<glyph glyph-name="box" unicode="&#52;" d="M275 332c-38 0-71-20-88-50-16 30-49 50-87 50-23 0-44-7-60-19l0 80c-1 10-9 18-20 18-11 0-20-8-20-18l0-157c1-52 45-93 100-93 38 0 71 21 88 50 16-29 49-50 88-50 55 0 99 42 99 94 0 53-45 95-100 95z m-175-151c-33 0-60 25-60 56 0 32 27 57 60 57 32 0 59-25 59-57 0-31-27-56-59-56z m175 0c-33 0-60 25-60 56 0 32 27 57 60 57 33 0 60-25 60-57 0-31-27-56-60-56z m234-8l-51 64 51 65c6 8 4 20-4 26-9 6-21 5-28-3l-44-56-44 56c-6 8-18 9-27 3-9-6-11-18-4-26l51-65-52-64c-6-9-4-20 4-26 9-7 21-5 28 3l44 56 43-56c7-8 19-10 28-3 9 6 11 17 5 26z"/>
<glyph glyph-name="arrow-square-down" unicode="&#53;" d="M448 0l-384 0c-35 0-64 29-64 64l0 384c0 35 29 64 64 64l384 0c35 0 64-29 64-64l0-384c0-35-29-64-64-64z m-65 309c-3 7-9 11-15 11l-224 0c-6 0-12-4-14-11-1-2-2-4-2-7 0-4 2-9 5-12l112-123c6-7 16-7 23 0l111 123c3 3 5 8 5 12 0 3 0 5-1 7z"/>
<glyph glyph-name="refresh" unicode="&#54;" d="M499 256l-165 0c-6 0-11-3-13-8-2-5-1-11 3-15l47-47c-24-36-65-60-112-60-59 0-109 38-127 89-2 5-7 9-13 9l-76 0c-3 0-7-1-8-4-3-2-3-6-3-9 22-102 115-179 227-179 73 0 139 33 181 85l49-49c3-4 9-5 14-3 5 3 9 7 9 13l0 165c0 7-6 13-13 13z m-320 0l-166 0c-7 0-13 6-13 13l0 166c0 5 3 10 8 12 5 2 11 1 15-3l49-48c42 51 108 84 181 84 112 0 206-77 227-179 0-3-1-7-3-9-1-2-5-4-8-4l-76 0c-6 0-11 4-13 10-18 51-68 88-127 88-47 0-88-24-112-60l47-47c4-3 6-9 3-14-2-6-7-9-12-9z"/>
<glyph glyph-name="list-square" unicode="&#55;" d="M480 0l-448 0c-18 0-32 14-32 32l0 448c0 18 14 32 32 32l448 0c18 0 32-14 32-32l0-448c0-18-14-32-32-32z m-288 96l256 0 0 64-256 0z m0 128l256 0 0 64-256 0z m-128-128l64 0 0 64-64 0z m0 128l64 0 0 64-64 0z m0 192l0-64 64 0 0 64z m128 0l0-64 256 0 0 64z"/>
<glyph glyph-name="list-rotate" unicode="&#56;" d="M103 176l-49 0c-17 0-32 14-32 32l0 272c0 18 15 32 32 32l49 0c17 0 32-14 32-32l0-272c0-18-15-32-32-32z m176 0l-48 0c-18 0-32 14-32 32l0 272c0 18 14 32 32 32l48 0c18 0 32-14 32-32l0-272c0-18-14-32-32-32z m177 0l-48 0c-18 0-32 14-32 32l0 272c0 18 14 32 32 32l48 0c18 0 32-14 32-32l0-272c0-18-14-32-32-32z m0-176l-48 0c-18 0-32 14-32 32l0 48c0 18 14 32 32 32l48 0c18 0 32-14 32-32l0-48c0-18-14-32-32-32z m-177 0l-48 0c-18 0-32 14-32 32l0 48c0 18 14 32 32 32l48 0c18 0 32-14 32-32l0-48c0-18-14-32-32-32z m-176 0l-49 0c-17 0-32 14-32 32l0 48c0 18 15 32 32 32l49 0c17 0 32-14 32-32l0-48c0-18-15-32-32-32z"/>
<glyph glyph-name="download" unicode="&#57;" d="M0 0l0 192 128 0 0-32c0-35 29-64 64-64l128 0c35 0 64 29 64 64l0 32 128 0 0-192z m512 384l-160-128 0 64c-80-7-128-32-157-128-2 11-3 22-3 34 0 105 67 189 160 222l0 64z"/>
<glyph glyph-name="heart" unicode="&#33;" d="M512 334c0 75-62 136-138 136-50 0-94-26-118-66-24 40-68 66-118 66-76 0-138-61-138-136 0-40 17-75 44-100l197-187c3-4 9-7 15-7 6 0 11 2 14 6l199 188c26 25 43 60 43 100"/>
<glyph glyph-name="check-bird" unicode="&#34;" d="M6 181l78 111 123-88 157 308 142-57-258-455z"/>
<glyph glyph-name="clock" unicode="&#35;" d="M256 0c-141 0-256 115-256 256 0 141 115 256 256 256 141 0 256-115 256-256 0-141-115-256-256-256z m128 256l-96 0 0 128c0 18-14 32-32 32-18 0-32-14-32-32l0-160c0-18 14-32 32-32l128 0c18 0 32 14 32 32 0 18-14 32-32 32z"/>
<glyph glyph-name="trash" unicode="&#36;" d="M478 352l-446 0c-9 0-16 7-16 16l0 32c0 9 7 16 16 16l112 0 0 32c0 32 0 64 63 64l96 0c32 0 64 0 64-64l0-32 111 0c9 0 16-7 16-16l0-32c0-9-7-16-16-16z m-175 96l-96 0 0-32 96 0z m112-448l-319 0c-9 0-16 7-16 16l0 304 64 0-1-3 0-237c0-9 8-16 16-16 9 0 16 7 16 16l0 237 0 3 65 0-1-3 0-237c0-9 8-16 16-16 9 0 16 7 16 16l0 237 0 3 65 0-1-3 0-237c0-9 7-16 16-16 9 0 16 7 16 16l0 237-1 3 65 0 0-304c0-9-8-16-16-16z"/>
<glyph glyph-name="circle-lined-error" unicode="&#37;" d="M363 341l-84-85 85-85c6-6 6-16 0-23-4-3-8-4-12-4-4 0-8 1-11 4l-85 85-85-85c-3-3-7-4-11-4-4 0-8 1-11 4-7 7-7 17 0 23l84 85-84 85c-7 6-7 16 0 23 6 6 16 6 23 0l84-85 85 85c6 6 16 6 23 0 6-7 6-17-1-23z m-107-341c-141 0-256 115-256 256 0 141 115 256 256 256 141 0 256-115 256-256 0-141-115-256-256-256z m0 480c-124 0-224-100-224-224 0-124 100-224 224-224 124 0 224 100 224 224 0 124-100 224-224 224z"/>
<glyph glyph-name="circle-lined-i" unicode="&#38;" d="M256 0c-141 0-256 115-256 256 0 141 115 256 256 256 141 0 256-115 256-256 0-141-115-256-256-256z m0 480c-124 0-224-100-224-224 0-124 100-224 224-224 124 0 224 100 224 224 0 124-100 224-224 224z m0-120c-13 0-24 11-24 24 0 13 11 24 24 24 13 0 24-11 24-24 0-13-11-24-24-24z m0-248c-9 0-16 7-16 16l0 176c0 9 7 16 16 16 9 0 16-7 16-16l0-176c0-9-7-16-16-16z"/>
<glyph glyph-name="circle-lined-smile" unicode="&#39;" d="M256 0c-141 0-256 115-256 256 0 141 115 256 256 256 141 0 256-115 256-256 0-141-115-256-256-256z m0 480c-124 0-224-100-224-224 0-124 100-224 224-224 124 0 224 100 224 224 0 124-100 224-224 224z m-80-191c-18 0-32 14-32 32 0 18 14 32 32 32 18 0 32-14 32-32 0-18-14-32-32-32z m160 0c-18 0-32 14-32 32 0 18 14 32 32 32 18 0 32-14 32-32 0-18-14-32-32-32z m62-109c-29-51-84-82-142-82-58 0-113 31-142 82-4 8-2 17 6 22 8 4 18 2 22-6 23-41 67-66 114-66 47 0 91 25 114 66 5 8 14 10 22 6 8-5 10-14 6-22z"/>
<glyph glyph-name="circle-lined-success" unicode="&#40;" d="M256 0c-141 0-256 115-256 256 0 141 115 256 256 256 141 0 256-115 256-256 0-141-115-256-256-256z m0 480c-124 0-224-100-224-224 0-124 100-224 224-224 124 0 224 100 224 224 0 124-100 224-224 224z m132-147l-158-176c-3-3-7-5-12-5 0 0 0 0 0 0-4 0-8 2-11 5l-82 81c-7 6-7 17 0 23 6 7 16 7 23 0l70-70 146 164c6 7 16 7 23 1 6-6 7-16 1-23z"/>
<glyph glyph-name="one-drive" unicode="&#41;" d="M512 161c0-22-13-42-32-52-1-1-3-1-4-2l-293 0c-37 1-67 31-67 68 0 37 31 68 68 68 2 0 4 0 5-1 0 2 0 4 0 5 0 47 38 85 85 85 33 0 61-19 75-46 12 8 26 12 40 12 41 0 74-33 74-74 0-2 0-3 0-5 28-4 49-29 49-58z m-123 152c-12 0-24-2-34-7-19 26-49 41-81 41-52 0-94-39-99-90-42-5-74-40-74-82 0-18 6-34 15-47l-46 0c-39 0-70 32-70 70 0 38 28 68 65 70-1 6-2 11-2 17 0 44 35 79 79 79 16 0 31-5 44-13 18 36 55 60 98 60 56 0 102-43 108-98-1 0-2 0-3 0z"/>
<glyph glyph-name="cloud-upload-2" unicode="&#42;" d="M448 334l0 2c0 80-64 144-144 144-53 0-100-29-124-73-11 6-23 9-36 9-44 0-80-36-80-80l0-2c-38-22-64-63-64-110 0-70 58-128 128-128l32 0 0 32-32 0c-53 0-96 43-96 96 0 34 18 65 48 83l16 9 0 18 0 4c1 25 22 46 48 46 7 0 14-2 21-5l27-14 15 26c21 36 57 57 97 57 61 0 111-49 112-110l0-1 0-21 16-9c30-18 48-49 48-83 0-53-43-96-96-96l-32 0 0-32 32 0c70 0 128 58 128 128 0 47-26 88-64 110m-192-14l-96-128 64 0 0-160 64 0 0 160 64 0z"/>
<glyph glyph-name="plus" unicode="&#43;" d="M256 0c-141 0-256 115-256 256 0 141 115 256 256 256 141 0 256-115 256-256 0-141-115-256-256-256z m128 288l-96 0 0 96-64 0 0-96-96 0 0-64 96 0 0-96 64 0 0 96 96 0z"/>
<glyph glyph-name="minus-1" unicode="&#44;" d="M256 0c-141 0-256 115-256 256 0 141 115 256 256 256 141 0 256-115 256-256 0-141-115-256-256-256z m128 288l-256 0 0-64 256 0z"/>
<glyph glyph-name="arrow-square-up" unicode="&#45;" d="M448 512c35 0 64-29 64-64l0-384c0-35-29-64-64-64l-384 0c-35 0-64 29-64 64l0 384c0 35 29 64 64 64z m-65-309c1 2 1 4 1 7 0 4-2 9-5 12l-111 123c-7 7-17 7-23 0l-112-123c-3-3-5-8-5-12 0-3 1-5 2-7 2-7 8-11 14-11l224 0c6 0 12 4 15 11z"/>
<glyph glyph-name="revers" unicode="&#46;" d="M161 80l0-80-144 128 144 128 0-80 320 0 0-96-320 0z m336 304l-144-128 0 80-320 0 0 96 320 0 0 80z"/>
<glyph glyph-name="import" unicode="&#47;" d="M449 320l-48 0c0-23-12-38-23-52l-64-77c-13-15-30-31-57-31-27 0-45 16-57 30l-64 78c-12 14-23 29-23 52l-48 0c-18 0-33-14-33-32l0-256c0-17 15-32 33-32l384 0c18 0 32 15 32 32l0 256c0 18-14 32-32 32z m-224-109c9-11 19-19 32-19 13 0 22 8 32 19l64 77c10 12 16 20 16 32 0 18-15 32-32 32l-48 0 0 128c0 18-14 32-32 32-18 0-32-15-32-32l0-128-48 0c-18 0-32-14-32-32 0-12 6-20 16-32z"/>
<glyph glyph-name="award" unicode="&#58;" d="M258 151c-100 0-181 81-181 180 0 100 81 181 181 181 99 0 180-81 180-181 0-99-81-180-180-180z m0 277c-54 0-97-43-97-97 0-53 43-96 97-96 53 0 96 43 96 96 0 54-43 97-96 97z m0-166c-39 0-70 31-70 69 0 39 31 70 70 70 38 0 69-31 69-70 1-38-31-69-69-69z m-120-262l-45 61-76 10 81 137c29-41 68-65 120-72z m283 61l-45-61-80 136c51 7 91 31 120 72l80-137z"/>
<glyph glyph-name="case" unicode="&#59;" d="M496 32l-480 0c-9 0-16 8-16 16l0 321c0 9 7 16 16 16l112 0 0 80c0 9 7 16 16 16l224 0c9 0 16-7 16-16l0-80 112 0c9 0 16-7 16-16l0-321c0-8-7-16-16-16z m-176 385l-128 0 0-32 128 0z"/>
<glyph glyph-name="earth-bordered" unicode="&#60;" d="M256 512c-141 0-256-115-256-256 0-141 115-256 256-256 141 0 256 115 256 256 0 141-115 256-256 256z m-111-439c-1 4-2 8-2 9-2 8-5 18-7 26-5 12-16 25-16 40 0 13 3 26-5 36-10 13-31 13-41 21-12 8-24 19-32 31-1 6-1 13-1 20 0 70 34 132 86 172 18 5 38 6 52 2 8-2 16-8 21-13 5-5 12-13 12-20 0-3 0-3-2-5-3-3-5-3-8-3-7 0-15 0-20 3-3 2-8 7-10 10-16 5-39-28-41-38-3-8-3-26 10-29 7 0 23 16 31 21 5 2 7 5 12 8 21 2 36-16 41-34 8-20-30-36-46-41-5-2-7 3-13 0-12-5-28-20-28-36-2-12-2-25-5-38-2 0-5 0-5 3 0 0 0 2 0 5 0 7-3 18-10 20-3 3-3 3-5 3-8 0-16 7-23 2-6-5-11-12-11-20 0-3 0-5 3-8 5-2 10 3 15 0 5 0 5-5 5-8 6-7 11-17 18-20 5 0 13 0 18 0 13 0 23 0 34 0 7-3 20-5 25-10 3-5 3-10 5-16 13-12 28-12 44-18 5-2 7-5 7-10 3-7 0-18-2-23-3-7-5-18-10-23-5-5-11-8-16-10-7-5-13-15-20-23 0-1-3-6-6-10-19 5-38 13-54 24z m236 9c-2 8-6 17-7 26-5 10-8 20-10 30-3 8-3 21-11 28-2 6-7 6-13 8-17 8-40-2-53 15-5 8-3 16-3 26 5 8 8 15 13 23 5 13 13 23 15 36 3 5 0 13 3 18 2 2 8 5 13 8 2 2 5 2 5 5 0 2-3 2-3 5 0 2 3 7 5 10 13 13 26 23 39 36 2 0 2 2 2 2 3 3 0 6-2 6-5 2-8 2-13 5-3 0-5 0-5 2-3 3 0 8 2 10 6 8 11 16 16 23 5 6 10 16 18 18 48-39 79-99 79-166 0-71-36-135-90-174z m-125 351c0 2-3 23-3 23-10 2-20 0-17 12 0 1 0 2 0 2 7 1 13 1 20 1 28 0 55-5 80-15-1-7-6-14-8-18-3-8-8-18-16-23-5-5-12-13-20-18-8-5-16-13-23-18-5-3-8-5-10-5l-3 0c-5 5-5 18-5 25 0 13 8 21 5 34z"/>
<glyph glyph-name="comment" unicode="&#61;" d="M229 116l144-113c3-2 4-3 6-3 3 0 5 3 5 7l0 107c0 8 5 14 11 14l53 0c47 0 64 23 64 43 0 19 0 277 0 298 0 22-16 43-64 43l-384 0c-47 0-64-21-64-43 0-22 0-278 0-298 0-21 18-43 64-43l128 0c0 0 27-1 37-12z"/>
<glyph glyph-name="eye" unicode="&#62;" d="M256 127c-71 0-128 57-128 127 0 71 57 128 128 128 71 0 128-58 128-128 0-70-57-127-128-127z m0 318c-131 0-256-148-256-191 0-43 125-191 256-191 131 0 256 148 256 191 0 43-125 191-256 191z m0-127c0-35-29-64-64-64 0-35 29-64 64-64 35 0 64 29 64 64 0 35-29 64-64 64z"/>
<glyph glyph-name="fb-fill" unicode="&#63;" d="M466 512l-420 0c-25 0-46-21-46-46l0-420c0-25 21-46 46-46l420 0c25 0 46 21 46 46l0 420c0 25-21 46-46 46z m-60-312l-74 0 0-200-75 0 0 200-52 0 0 72 52 0c0 0 0 30 0 62 0 48 31 93 102 93 29 0 50-3 50-3l-1-67c0 0-22 0-46 0-25 0-30-12-30-32 0-2 0-3 0-3 0-6 0-20 0-50l78 0z"/>
<glyph glyph-name="in-fill" unicode="&#64;" d="M466 512l-420 0c-25 0-46-21-46-46l0-420c0-25 21-46 46-46l420 0c25 0 46 21 46 46l0 420c0 25-21 46-46 46z m-282-393l-60 0 0 183 60 0z m-30 208c-19 0-35 15-35 33 0 18 16 33 35 33 20 0 35-15 35-33 0-18-15-33-35-33z m256-208l-60 0 0 89c0 21-1 49-32 49-31 0-36-24-36-47l0-91-60 0 0 183 58 0 0-25 1 0c8 14 27 30 57 30 61 0 72-38 72-87z"/>
<glyph glyph-name="lamp" unicode="&#91;" d="M282 416c-11 2-18 11-18 21 0 12 9 22 22 22 17 0 38-12 56-29 18-18 31-41 31-57 0-11-9-21-22-21-10 0-19 8-21 18-6 21-25 41-48 46z m-117-298l0-32c0-15 6-29 16-39l33-31c21-21 56-21 78 0l32 31c10 10 16 23 16 39l0 21-97 0c-13 0-24 10-24 21 0 12 11 22 24 22l100 0c15 82 85 116 85 196 0 92-78 166-175 166-98 0-176-74-176-166 0-91 88-122 88-228z"/>
<glyph glyph-name="picture" unicode="&#93;" d="M448 0l-384 0c-35 0-64 29-64 64l0 384c0 35 29 64 64 64l384 0c35 0 64-29 64-64l0-384c0-35-29-64-64-64z m-116 308l-59-47c-2-1-4 0-4 1l-70 135c-2 4-4 4-6 0l-7-14-122-265c-1-3 0-6 4-6l376 0c3 0 5 2 3 6l-107 188c-2 4-6 4-8 2z m76 124c-22 0-40-18-40-40 0-22 18-40 40-40 22 0 40 18 40 40 0 22-18 40-40 40z"/>
<glyph glyph-name="pdf-fill" unicode="&#94;" d="M239 287c-6-20-17-42-29-68-5-11-11-20-17-31l6 0c37 14 71 22 94 25-6 3-8 6-11 9-15 17-32 40-43 65z m185-111c-6-3-14-5-26-5-23 0-57 5-85 20-48-6-85-12-114-23-3 0-3 0-6-3-34-60-62-88-85-88-6 0-8 0-11 3l-15 8 0 3c-2 6-2 9-2 14 2 14 20 40 54 60 5 3 14 9 25 14 9 14 17 31 29 51 14 29 22 57 31 83-11 34-17 54-6 94 3 11 12 22 23 22l6 0c5 0 11-3 17-5 20-20 11-66 0-103l0-3c11-31 28-56 45-73 9-6 14-12 26-18 14 0 26 3 37 3 34 0 57-5 65-20 3-5 3-11 3-17-3-2-5-11-11-17z m31 336l-398 0c-31 0-57-26-57-57l0-398c0-31 26-57 57-57l398 0c31 0 57 26 57 57l0 398c0 31-26 57-57 57z m-42-313c-3 3-15 12-55 12l-5 0c0 0 0 0 0-3 20-9 40-14 54-14l8 0c0 0 0 0 0 2 0 0-2 0-2 3z m-262-43c-6-2-12-5-14-8-20-17-35-37-37-46 17 3 34 20 51 54z m85 197c3 11 6 17 6 25l0 6c3 14 3 26 0 28 0 0 0 0 0 3l-3 3c0 0 0-3-3-3-6-17-6-37 0-62z"/>
<glyph glyph-name="notebook-bird" unicode="&#95;" d="M365 356l-217 0c-7 0-14 3-18 9-4 6-5 13-3 20l27 86c3 9 11 15 21 15l60 0 0 4c0 12 9 22 22 22 11 0 21-10 21-22l0-3 59 0c10 0 17-7 21-15l27-84c1-2 2-6 2-10 0-12-10-22-22-22z m69-356l-356 0c-12 0-22 10-22 22l0 407c0 12 10 22 22 22l26 0-16-51c-7-20-4-42 8-58 12-16 31-26 52-26l217 0c36 0 64 29 64 64 0 8-1 17-4 24l-15 46 25 0c11 0 21-10 21-22l0-406c0-12-10-22-22-22z m-105 222c-8 9-21 9-30 0l-59-59-24 24c-8 9-22 9-30 0-9-8-9-22 0-30l38-38c4-5 9-7 15-7 5 0 11 2 15 7l74 74c8 7 8 22 1 29z"/>
<glyph glyph-name="quote" unicode="&#96;" d="M0 349c0 30 10 54 31 72 21 19 47 28 78 28 39 0 70-13 93-37 22-24 33-57 33-97 0-42-6-77-20-106-13-30-29-54-48-73-18-19-38-34-58-45-20-11-38-19-53-24l-51 84c21 8 40 22 55 40 15 18 23 37 25 58-21 0-41 9-58 27-18 19-27 43-27 73z m277 0c0 30 10 54 31 72 21 19 47 28 78 28 39 0 70-13 93-37 22-24 33-57 33-97 0-42-6-77-20-106-13-30-29-54-48-73-18-19-38-34-58-45-20-11-38-19-53-24l-51 84c21 8 39 22 54 40 15 18 24 37 26 58-21 0-41 9-58 27-18 19-27 43-27 73z"/>
<glyph glyph-name="vk-fill" unicode="&#123;" d="M466 512l-420 0c-25 0-46-21-46-46l0-420c0-25 21-46 46-46l420 0c25 0 46 21 46 46l0 420c0 25-21 46-46 46z m-39-358l-51 0c0 0-10-2-24 7-19 12-37 44-51 40-14-4-13-33-13-33 0 0 0-6-3-9-4-4-10-5-10-5l-23 0c0 0-49-2-93 41-48 47-90 141-90 141 0 0-2 7 0 10 3 3 12 3 12 3l53 1c0 0 5-1 9-4 3-2 4-6 4-6 0 0 9-21 21-40 22-37 33-45 40-41 11 6 8 52 8 52 0 0 0 17-6 25-4 6-13 7-16 8-4 0 1 7 8 10 10 4 27 5 47 5 16-1 20-1 26-3 19-4 12-21 12-60 0-13-2-31 8-37 4-2 14 0 39 41 12 19 21 42 21 42 0 0 2 4 5 6 3 2 7 1 7 1l56 0c0 0 17 2 20-5 3-8-6-26-29-55-38-48-42-44-11-72 30-26 36-39 37-41 13-20-13-22-13-22z"/>
<glyph glyph-name="video-fill" unicode="&#124;" d="M448 0l-384 0c-35 0-64 29-64 64l0 384c0 35 29 64 64 64l384 0c35 0 64-29 64-64l0-384c0-35-29-64-64-64z m-32 363c0 11-9 21-20 21l0 0-76-96 0 68c0 15-12 28-26 28l-171 0c-15 0-27-13-27-28l0-199c0-16 12-29 27-29l171 0c14 0 26 13 26 29l0 67 76-96 0 0c11 0 20 10 20 22z"/>
<glyph glyph-name="tw-fill" unicode="&#125;" d="M466 512l-420 0c-25 0-46-21-46-46l0-420c0-25 21-46 46-46l420 0c25 0 46 21 46 46l0 420c0 25-21 46-46 46z m-61-179c1-3 1-7 1-10 0-102-78-221-220-221-43 0-84 13-118 35 6 0 12-1 19-1 36 0 69 13 95 33-33 1-62 24-72 54 5 0 10-1 15-1 7 0 14 1 20 3-35 7-62 38-62 76 0 0 0 1 0 1 11-6 23-9 35-10-20 14-34 38-34 65 0 14 4 27 10 39 38-47 95-78 159-81-1 5-2 11-2 17 0 43 35 78 77 78 22 0 42-10 56-25 18 4 34 10 49 19-6-18-18-33-34-43 16 2 31 6 45 13-11-16-24-30-39-41z"/>
<glyph glyph-name="answer" unicode="&#126;" d="M192 343l0 95c0 7-4 13-10 15-2 1-4 1-6 1-4 0-9-2-12-5l-158-172c-5-5-6-9-6-14 0-4 3-10 6-13l0-1 0 0 158-172c3-3 8-5 12-5 2 0 4 0 6 1 6 2 10 8 10 15l0 95c309 0 320-104 320-111 0 255-320 271-320 271z"/>
<glyph glyph-name="archive" unicode="&#92;" d="M480 352l-448 0c-18 0-32 14-32 32l0 96c0 18 14 32 32 32l448 0c18 0 32-14 32-32l0-96c0-18-14-32-32-32z m-32-352l-384 0c-18 0-32 14-32 32l0 288 128 0 0-64 192 0 0 64 128 0 0-288c0-18-14-32-32-32z"/>
<glyph glyph-name="case-2" unicode="&#57344;" d="M448 408c0-9-7-16-16-16l-16 0 0-28c0-9-7-17-16-17-9 0-16 8-16 17l0 44-32 0 0 48c0 18-14 32-32 32l-128 0c-18 0-32-14-32-32l0-48-32 0 0-44c0-9-7-17-16-17-9 0-16 8-16 17l0 28-16 0c-9 0-16 8-16 16l0 0c-35 0-64-29-64-64l0-256c0-35 29-64 64-64l384 0 0 0c36 0 64 29 64 64l0 256c0 35-29 64-64 64z m-128 0l-128 0 0 48 128 0z"/>
<glyph glyph-name="clip" unicode="&#57345;" d="M470 470c-56 56-148 56-204 0l-224-224c-56-57-56-148 0-204 56-56 148-56 204 0l47 46c-25 1-49 9-68 23l-24-24c-32-31-82-31-114 0-31 32-31 82 0 114l224 224c32 31 82 31 114 0 31-32 31-82 0-114l-112-112c-9-9-25-9-34 0-9 9-9 25 0 34l84 85c7 6 7 17 0 23l-22 23c-7 6-17 6-23 0l-84-86c-34-34-34-90 0-124 34-35 90-35 124 0l112 112c56 56 56 148 0 204z"/>
<glyph glyph-name="cloud" unicode="&#57346;" d="M415 315c-8 54-55 96-111 96-48 0-89-30-105-73-11 6-24 9-38 9-44 0-80-36-80-80 0 0-1 0-1 0-44 0-80-36-80-81 0-44 36-80 80-80l328 0c57 0 104 47 104 104 0 56-43 101-97 105z"/>
<glyph glyph-name="comments-2" unicode="&#57347;" d="M448 96l0-96-96 96-160 0c-32 0-64 32-64 64l0 3 45 45 147 0c49 0 96 46 96 96l0 64 32 0c32 0 64-32 64-64l0-144c0-32-32-64-64-64z m-128 144l-160 0-96-96 0 96c-32 0-64 32-64 64l0 144c0 32 32 64 64 64l256 0c32 0 64-32 64-64l0-144c0-32-32-64-64-64z"/>
<glyph glyph-name="del" unicode="&#57348;" d="M19 19c25-25 66-25 92 0l144 145 144-145c26-25 67-25 92 0 25 26 25 67 0 92l-144 145 144 145c25 25 25 66 0 92-25 25-66 25-91 0l-145-145-144 145c-26 25-67 25-92 0-25-26-25-67 0-92l144-145-144-145c-25-25-25-66 0-92z"/>
<glyph glyph-name="event" unicode="&#57349;" d="M96 448l0 64 64 0 0-64z m256 0l0 64 64 0 0-64z m128-448l-448 0c-18 0-32 14-32 32l0 416c0 18 14 32 32 32l32 0 0-32c0-18 14-32 32-32l64 0c18 0 32 14 32 32l0 32 128 0 0-32c0-18 14-32 32-32l64 0c18 0 32 14 32 32l0 32 32 0c18 0 32-14 32-32l0-416c0-18-14-32-32-32z m-144 336l-112-112-48 48-48-48 96-96 160 160z"/>
<glyph glyph-name="download-3" unicode="&#57350;" d="M38 59l0-59 415 0 0 59z m435 276l-119 0 0 177-198 0 0-177-118 0 217-217z"/>
<glyph glyph-name="download-2" unicode="&#57351;" d="M432 352l-36 0 80-160-92 0-64-96-128 0-64 96-92 0 80 160-36 0-80-160 0-192 512 0 0 192z m-176-160l-128 128 64 0 0 192 128 0 0-192 64 0z"/>
<glyph glyph-name="dots-vert-square" unicode="&#57352;" d="M189 320l127 0 0-128-127 0z m0-192l127 0 0-128-127 0z m0 384l127 0 0-128-127 0z"/>
<glyph glyph-name="fire" unicode="&#57353;" d="M310 0c167 0 188 119 162 256-8-29-25-55-51-66 55 109 2 192-83 220 38-54 9-89-17-87-29 4-53 26-29 65 37 59 38 103-26 124 26-80-136-106-120-257-16 3-42 49-24 86-47-12-114-123-32-221-23 4-44 13-58 34 3-89 64-150 203-154-71 65-33 145-5 170-8-34 5-87 36-103-25 71 45 85-18 172 112-42 101-192 62-239z"/>
<glyph glyph-name="folder" unicode="&#57354;" d="M512 318l-17-266c-1-16-4-28-28-28l-421 0c-24 0-27 12-28 28l-18 263c-1 15 0 28 24 28l464 0c24 0 25-10 24-25z m-485 57c1 9 5 67 7 89 3 24 11 22 34 22 0 0 70 0 100 0 38 0 31-7 49-27 22-24 26-24 55-24 29 0 191 0 191 0 14 0 19-4 20-20l2-40z"/>
<glyph glyph-name="lock" unicode="&#57355;" d="M38 256l36 0 0 74c0 100 82 182 182 182 100 0 182-82 182-182l0-74 36 0 0-256-436 0z m327 0l0 74c0 60-49 109-109 109-60 0-109-49-109-109l0-74z"/>
<glyph glyph-name="ok" unicode="&#57356;" d="M495 350c22 21 22 56 0 78-21 21-56 21-77 0l-225-226-99 99c-22 21-56 21-78 0-21-22-21-57 0-78l151-151c14-14 37-14 51 0z"/>
<glyph glyph-name="picture-2" unicode="&#57357;" d="M168 288c-30 0-55 26-55 56 0 30 25 56 55 56 30 0 56-26 56-56-1-30-26-56-56-56z m277 144c0 10-6 16-16 16l-348 0c-10 0-16-6-16-16l0-283 60 61c19 19 49 19 68 0l38-39 86 87c19 19 49 19 68 0l62-63z m16-432l-412 0c-27 0-47 21-47 48l0 416c0 27 20 48 47 48l412 0c27 0 48-21 48-48l0-416c0-27-21-48-48-48z"/>
<glyph glyph-name="pin" unicode="&#57358;" d="M255 384c-35 0-63-29-63-64 0-35 28-64 63-64 35 0 64 29 64 64 0 35-29 64-64 64z m0-192c-70 0-127 57-127 128 0 71 57 128 127 128 70 0 127-57 127-128 0-71-57-128-127-128z m0 320c-105 0-190-86-190-192 0-123 137-277 158-301 9-9 17-19 32-19 16 0 23 10 32 19 21 24 159 178 159 301 0 106-86 192-191 192z"/>
<glyph glyph-name="refresh-2" unicode="&#57359;" d="M511 271c-28 0-57-1-85-1 5-49-11-99-49-136-67-66-175-66-241 0-67 66-67 173 0 239 56 57 143 65 209 25-22-22-48-48-48-48-19-20 0-33 13-33l166 0c6 0 12 5 12 12l0 163c1 15-17 30-33 13 0 0-29-27-48-47-100 73-241 64-332-25-100-99-100-260 0-359 100-99 262-99 362 0 55 54 79 126 74 197z"/>
<glyph glyph-name="view-cascade" unicode="&#57360;" d="M32 512l448 0c18 0 32-14 32-32l0-160c0-18-14-32-32-32l-448 0c-18 0-32 14-32 32l0 160c0 18 14 32 32 32z m0-288l448 0c18 0 32-14 32-32l0-160c0-18-15-32-32-32l-448 0c-18 0-32 14-32 32l0 160c0 18 14 32 32 32z"/>
<glyph glyph-name="users-group" unicode="&#57361;" d="M96 34l0 64c0 81 25 69 121 110-34 25-57 75-57 115 0 53 43 96 96 96 53 0 96-43 96-96 0-40-23-90-57-115 96-41 121-29 121-110l0-64z m352 64c0 83-29 97-90 120-3 1-5 2-8 3 21 30 34 68 34 102 0 63-46 115-105 126 17 21 43 34 73 34 53 0 96-43 96-96 0-40-24-90-57-115 95-41 121-29 121-110l0-64-64 0z m-320 225c0-34 13-72 34-102-3-1-5-2-8-3-61-23-90-37-90-120l-64 0 0 64c0 81 25 69 121 111-34 24-57 75-57 114 0 53 43 96 96 96 29 0 56-13 73-34-59-11-105-63-105-126z"/>
<glyph glyph-name="upload-2" unicode="&#57362;" d="M36 453l0 59 414 0 0-59z m433-276l-118 0 0-177-197 0 0 177-118 0 217 217z"/>
<glyph glyph-name="view-grid" unicode="&#57363;" d="M320 224l160 0c18 0 32-14 32-32l0-160c0-18-14-32-32-32l-160 0c-18 0-32 14-32 32l0 160c0 18 14 32 32 32z m-288 0l160 0c18 0 32-14 32-32l0-160c0-18-14-32-32-32l-160 0c-18 0-32 14-32 32l0 160c0 18 14 32 32 32z m288 288l160 0c18 0 32-14 32-32l0-160c0-18-14-32-32-32l-160 0c-18 0-32 14-32 32l0 160c0 18 14 32 32 32z m-288 0l160 0c18 0 32-14 32-32l0-160c0-18-14-32-32-32l-160 0c-18 0-32 14-32 32l0 160c0 18 14 32 32 32z"/>
<glyph glyph-name="view-rows" unicode="&#57364;" d="M32 96l448 0c18 0 32-14 32-32l0-32c0-18-14-32-32-32l-448 0c-18 0-32 14-32 32l0 32c0 18 14 32 32 32z m0 208l448 0c18 0 32-14 32-32l0-32c0-18-14-32-32-32l-448 0c-18 0-32 14-32 32l0 32c0 18 14 32 32 32z m0 208l448 0c18 0 32-14 32-32l0-32c0-18-14-32-32-32l-448 0c-18 0-32 14-32 32l0 32c0 18 14 32 32 32z"/>
<glyph glyph-name="warning" unicode="&#57365;" d="M288 190l-65 0 0 129 65 0z m0-98l-65 0 0 65 65 0z m219-16l-223 389c-6 10-16 16-28 16-12 0-23-6-28-16l-224-389c-6-10-6-23 0-33 6-10 17-16 28-16l447 0c12 0 22 6 28 16 6 10 6 23 0 33z"/>
<glyph glyph-name="facebook" unicode="&#57366;" d="M384 509l0-76-45 0c-17 0-28-3-33-10-6-7-9-17-9-31l0-54 84 0-11-85-73 0 0-216-87 0 0 216-73 0 0 85 73 0 0 62c0 36 10 63 29 83 20 19 47 29 80 29 28 0 49-1 65-3z"/>
<glyph glyph-name="instagram" unicode="&#57367;" d="M426 105l0 185-39 0c4-12 6-25 6-38 0-24-6-46-18-66-13-20-29-36-50-48-21-12-44-18-69-18-37 0-69 13-96 39-27 26-40 57-40 93 0 13 2 26 6 38l-41 0 0-185c0-5 2-10 5-13 4-3 8-5 13-5l305 0c5 0 9 2 13 5 3 3 5 8 5 13z m-81 152c0 23-9 44-26 60-18 17-38 25-63 25-24 0-45-8-62-25-17-16-26-37-26-60 0-24 9-44 26-61 17-16 38-25 62-25 25 0 45 9 63 25 17 17 26 37 26 61z m81 103l0 47c0 5-2 10-6 14-4 4-8 6-14 6l-50 0c-5 0-10-2-14-6-4-4-5-9-5-14l0-47c0-6 1-10 5-14 4-4 9-6 14-6l50 0c6 0 10 2 14 6 4 4 6 8 6 14z m49 59l0-326c0-16-5-29-16-40-11-11-24-16-40-16l-326 0c-16 0-29 5-40 16-11 11-16 24-16 40l0 326c0 16 5 29 16 40 11 11 24 16 40 16l326 0c16 0 29-5 40-16 11-11 16-24 16-40z"/>
<glyph glyph-name="google-plus" unicode="&#57368;" d="M228 285c0-7 3-14 9-21 7-6 14-13 23-19 8-6 17-13 25-21 9-8 16-18 22-30 7-12 10-25 10-40 0-17-5-34-14-50-14-23-34-40-60-51-27-11-55-16-86-16-25 0-48 4-70 11-22 8-38 21-49 40-7 11-11 24-11 37 0 16 5 30 13 43 9 13 20 24 34 33 25 15 63 25 115 28-6 8-10 15-13 22-3 6-5 13-5 20 0 7 2 15 6 25-8-1-15-1-19-1-28 0-52 9-71 27-20 19-29 42-29 70 0 16 3 31 10 45 7 15 16 28 28 38 15 12 32 22 52 28 21 6 41 9 63 9l119 0-39-25-38 0c14-12 25-25 32-38 7-13 11-29 11-46 0-14-2-26-7-37-5-11-10-20-17-26-6-7-13-13-20-19-6-6-12-11-17-18-4-6-7-12-7-18z m-41 27c7 0 14 2 22 5 7 3 14 7 19 12 10 11 15 26 15 46 0 11-2 23-5 35-3 13-8 25-14 37-6 12-14 22-24 30-10 8-21 12-33 12-8 0-16-2-24-6-8-4-14-9-19-15-9-11-13-26-13-46 0-8 1-18 3-28 2-9 5-19 9-29 4-10 9-19 15-26 5-8 13-15 21-20 8-5 18-7 28-7z m0-249c11 0 22 1 32 3 10 3 20 6 28 11 9 5 16 12 21 21 5 9 8 20 8 31 0 5-1 10-2 14-1 5-3 9-4 12-2 4-4 8-8 12-4 5-6 8-8 10-2 2-6 6-11 10-6 5-9 7-11 8-1 2-5 4-12 9-6 5-9 7-10 7-3 1-8 1-14 1-10 0-20-1-30-2-10-1-20-4-30-7-11-4-20-8-28-13-8-6-15-13-20-22-5-8-7-18-7-30 0-13 3-25 10-35 6-10 15-18 26-24 10-5 22-10 34-12 12-3 24-4 36-4z m232 250l60 0 0-31-60 0 0-63-30 0 0 63-61 0 0 31 61 0 0 62 30 0z"/>
<glyph glyph-name="linkedin" unicode="&#57369;" d="M136 333l0-283-94 0 0 283z m6 88c0-14-4-26-14-35-10-9-23-14-39-14l0 0c-16 0-29 5-38 14-10 9-14 21-14 35 0 14 4 26 14 35 10 9 23 14 39 14 16 0 28-5 38-14 9-9 14-21 14-35z m333-208l0-163-94 0 0 152c0 20-3 35-11 47-8 11-20 17-36 17-12 0-22-4-30-10-9-7-15-15-19-25-2-5-3-13-3-23l0-158-94 0c1 76 1 138 1 185 0 47 0 76 0 85l-1 13 94 0 0-41 0 0c4 6 7 12 11 16 4 5 10 10 17 15 6 5 15 10 24 13 10 3 21 4 33 4 33 0 59-11 79-32 20-22 29-54 29-95z"/>
<glyph glyph-name="twitter" unicode="&#57370;" d="M481 395c-13-18-28-34-46-47 0-3 0-7 0-12 0-25-3-50-11-74-7-25-18-49-33-71-14-23-32-43-52-61-21-17-45-31-74-41-29-11-60-16-92-16-52 0-99 14-142 42 7-1 14-2 22-2 43 0 81 14 115 40-20 0-38 6-54 18-16 12-27 27-33 46 7-1 13-2 18-2 8 0 16 1 24 4-21 4-39 15-53 31-14 17-21 37-21 59l0 1c13-7 27-11 42-11-13 8-23 19-30 32-8 14-11 29-11 44 0 17 4 33 12 47 23-28 51-51 84-68 33-17 69-27 107-29-2 8-3 15-3 22 0 25 9 47 27 65 18 18 40 27 66 27 26 0 49-10 67-29 21 4 40 11 59 22-7-22-21-39-41-51 18 2 35 7 53 14z"/>
<glyph glyph-name="phone" unicode="&#57371;" d="M510 104l-2 7c-7 18-26 37-44 42l-68 18c-18 5-44-1-58-15l-24-24c-89 24-158 93-182 182l25 24c13 14 19 40 15 58l-19 67c-5 18-23 38-41 44l-8 3c-18 6-43 0-57-14l-36-36c-7-7-11-25-11-25-1-116 44-227 126-309 82-82 193-127 308-126 1 0 20 4 26 10l36 37c14 13 20 39 14 57z"/>
<glyph glyph-name="gp-fill" unicode="&#57372;" d="M197 201c-2 1-9 0-19 0-9-2-19-4-30-7-2-1-5-2-10-4-4-2-9-5-13-9-5-4-8-8-11-14-4-6-6-13-6-21 0-17 8-30 23-41 14-11 34-16 59-17 22 1 39 5 51 15 11 9 17 21 17 36 0 12-4 22-12 31-8 9-21 19-38 31-4 0-7 0-11 0z m278 311l-438 0c-21 0-37-16-37-37l0-438c0-21 16-37 37-37l438 0c20 0 37 16 37 37l0 438c0 21-16 37-37 37z m-225-111c4-3 7-8 10-13 4-5 7-11 9-18 2-7 3-15 3-24 0-17-4-30-11-40-4-5-7-10-11-14-5-4-9-8-14-12-3-3-6-7-8-10-3-4-4-9-4-14 0-5 1-9 4-12 2-3 5-6 7-8l16-13c10-8 19-17 26-27 8-10 11-23 11-39 0-22-10-43-30-60-21-18-51-28-91-28-33 0-58 7-74 21-16 12-25 28-25 46 0 8 3 18 8 29 5 10 15 20 29 28 15 8 31 14 48 17 17 2 30 4 42 4-4 5-7 9-9 15-4 4-5 10-5 17 0 4 1 8 2 11 1 3 2 5 3 8-6-1-11-1-16-1-25 0-44 8-57 23-14 15-21 31-21 51 0 23 10 44 29 62 14 11 28 19 42 22 14 3 28 4 41 4l94 0-29-17-29 0c3-1 6-4 10-8z m177-50l-50 0 0-49-24 0 0 49-50 0 0 24 50 0 0 49 24 0 0-49 50 0z m-227 51c-7 6-16 8-26 9-13-1-23-6-32-16-7-10-10-22-10-35 0-17 5-34 15-53 5-8 11-16 19-21 7-6 16-10 26-10 12 1 23 5 31 14 4 6 7 12 8 18 1 7 1 12 1 16 0 19-5 37-14 56-5 9-11 17-18 22z"/>
<glyph glyph-name="ok-fill" unicode="&#57373;" d="M475 512l-438 0c-20 0-36-16-36-37l0-438c0-21 16-37 36-37l438 0c20 0 36 16 36 37l0 438c0 21-16 37-36 37z m-272-124c14 14 32 21 53 21 21 0 39-7 54-21 14-15 22-33 22-53 0-20-8-38-22-52-15-15-33-22-54-22-21 0-39 7-53 22-15 14-23 32-23 52 0 20 8 38 23 53z m138-157c-2-6-5-11-10-14-14-9-29-15-44-19l42-42c5-4 7-9 7-15 0-6-2-11-7-15-4-4-10-7-16-7-6 0-11 3-15 7l-42 41-41-41c-5-4-10-7-16-7-6 0-12 3-16 7-4 4-6 9-6 15 0 6 2 11 6 15l42 42c-15 4-30 10-44 19-5 3-8 8-9 14-2 6-1 12 3 17 3 5 7 8 13 10 6 1 12 0 17-3 16-10 33-15 51-15 19 0 36 5 51 15 5 3 11 4 17 3 6-2 11-5 14-10 3-5 4-11 3-17z m-85 73c9 0 16 3 22 9 6 6 9 13 9 22 0 9-3 16-9 22-6 6-13 9-22 9-8 0-16-3-22-9-6-6-9-13-9-22 0-9 3-16 9-22 6-6 14-9 22-9z"/>
<glyph glyph-name="editor-align-center" unicode="&#57374;" d="M416 291l-320 0c-18 0-32 14-32 32 0 17 14 32 32 32l320 0c18 0 32-15 32-32 0-18-14-32-32-32z m64 128l-448 0c-18 0-32 14-32 32 0 18 14 32 32 32l448 0c18 0 32-14 32-32 0-18-14-32-32-32z m-64-385l-320 0c-18 0-32 14-32 32 0 18 14 32 32 32l320 0c18 0 32-14 32-32 0-18-14-32-32-32z m64 128l-448 0c-18 0-32 15-32 33 0 17 14 32 32 32l448 0c18 0 32-15 32-32 0-18-14-33-32-33z"/>
<glyph glyph-name="editor-align-justify" unicode="&#57375;" d="M480 161l-448 0c-18 0-32 14-32 32 0 18 14 32 32 32l448 0c18 0 32-14 32-32 0-18-14-32-32-32z m0-129l-448 0c-18 0-32 15-32 33 0 17 14 32 32 32l448 0c18 0 32-15 32-32 0-18-14-33-32-33z m0 385l-448 0c-18 0-32 14-32 32 0 18 14 32 32 32l448 0c18 0 32-14 32-32 0-18-14-32-32-32z m0-128l-448 0c-18 0-32 14-32 32 0 18 14 32 32 32l448 0c18 0 32-14 32-32 0-18-14-32-32-32z"/>
<glyph glyph-name="editor-align-left" unicode="&#57376;" d="M352 289l-320 0c-18 0-32 14-32 32 0 17 14 31 32 31l320 0c18 0 32-14 32-31 0-18-14-32-32-32z m128 127l-448 0c-18 0-32 14-32 32 0 17 14 32 32 32l448 0c18 0 32-15 32-32 0-18-14-32-32-32z m-128-382l-320 0c-18 0-32 14-32 32 0 18 14 32 32 32l320 0c18 0 32-14 32-32 0-18-14-32-32-32z m128 127l-448 0c-18 0-32 15-32 32 0 18 14 32 32 32l448 0c18 0 32-14 32-32 0-17-14-32-32-32z"/>
<glyph glyph-name="editor-align-right" unicode="&#57377;" d="M160 289c-18 0-32 14-32 32 0 17 14 31 32 31l320 0c18 0 32-14 32-31 0-18-15-32-32-32z m-128 127c-18 0-32 14-32 32 0 17 14 32 32 32l448 0c18 0 32-15 32-32 0-18-15-32-32-32l-448 0z m128-382c-18 0-32 14-32 32 0 17 14 32 32 32l320 0c18 0 32-15 32-32 0-18-15-32-32-32z m-128 127c-18 0-32 15-32 32 0 18 14 32 32 32l448 0c18 0 32-14 32-32 0-17-15-32-32-32z"/>
<glyph glyph-name="editor-bold" unicode="&#57378;" d="M383 290c49-20 86-75 86-140 0-83-59-150-127-150l-298 0 0 32 31 0c19 0 12 36 12 53l0 342c0 17 7 53-12 53l-31 0 0 32 255 0c67 0 128-57 128-128 0-37-18-70-44-94z m-168 178l0 1-18 0c6 0 12 0 18-1l0-168c-6-1-12-2-18-2l18 0 0 2c45 7 84 42 84 84 0 42-40 76-84 84z m42-212l-43 0 0-213 43 0c48 0 85 47 85 106 0 59-37 107-85 107z"/>
<glyph glyph-name="editor-eraser" unicode="&#57380;" d="M186 44c-5-5-13-5-18 0l-124 124c-5 5-5 13 0 18l106 106 142-142z m311 328l-125 125c-10 10-23 15-37 15-14 0-27-5-37-16l-283-282c-20-20-20-54 0-74l125-125c10-10 23-15 37-15 14 0 27 5 37 16l282 282c10 10 16 23 16 37 0 14-5 27-15 37z"/>
<glyph glyph-name="editor-font" unicode="&#57381;" d="M322 210l-70 182-69-182z m190-194l-112 0-44 111-205 0-42-111-109 0 199 484 109 0z"/>
<glyph glyph-name="editor-list" unicode="&#57386;" d="M480 161l-224 0c-18 0-32 14-32 32 0 18 14 32 32 32l224 0c18 0 32-14 32-32 0-18-14-32-32-32z m0 128l-224 0c-18 0-32 14-32 32 0 18 14 32 32 32l224 0c18 0 32-14 32-32 0-18-14-32-32-32z m0 128l-224 0c-18 0-32 14-32 32 0 18 14 32 32 32l224 0c18 0 32-14 32-32 0-18-14-32-32-32z m-320-385l-128 0c-18 0-32 15-32 33l0 128c0 18 14 32 32 32l128 0c18 0 32-14 32-32l0-128c0-18-14-33-32-33z m-32 107c0 12-10 22-21 22l-22 0c-11 0-21-10-21-22l0-21c0-12 10-21 21-21l22 0c11 0 21 9 21 21z m32 150l-128 0c-18 0-32 14-32 32l0 128c0 18 14 32 32 32l128 0c18 0 32-14 32-32l0-128c0-18-14-32-32-32z m-32 107c0 12-10 21-21 21l-22 0c-11 0-21-9-21-21l0-22c0-11 10-21 21-21l22 0c11 0 21 10 21 21z m128-299l224 0c18 0 32-15 32-32 0-18-15-33-32-33l-224 0c-18 0-32 15-32 33 0 17 14 32 32 32z"/>
<glyph glyph-name="editor-magic" unicode="&#57387;" d="M306 307c19-19 19-50 0-68l-224-225c-19-18-49-18-68 0-19 19-19 49 0 68l224 225c19 18 50 18 68 0z m186 14l-70 9-26-49c-1-1-2-3-3-5-14-25-30-26-37-4l-13 71-71 13c-22 7-21 23 4 37 2 1 4 2 5 3l49 26-9 70c0 24 15 28 36 7 3-2 6-4 9-6l36-35 48 23c2 1 3 2 5 3 30 14 43 1 29-29-1-2-2-3-3-5l-23-48 35-36c2-4 4-6 6-9 20-21 16-36-7-36z"/>
<glyph glyph-name="editor-numeric-list" unicode="&#57388;" d="M478 427l-239 0c-19 0-34 15-34 34 0 19 15 34 34 34l239 0c19 0 34-15 34-34 0-19-15-34-34-34z m0-136l-239 0c-19 0-34 15-34 34 0 19 15 34 34 34l239 0c19 0 34-15 34-34 0-19-15-34-34-34z m0-136l-239 0c-19 0-34 15-34 34 0 19 15 34 34 34l239 0c19 0 34-15 34-34 0-19-15-34-34-34z m0-136l-239 0c-19 0-34 15-34 34 0 19 15 34 34 34l239 0c19 0 34-15 34-34 0-19-15-34-34-34z m-410 272l0 170-68 0 68 34 69 0 0-204z m103-272l-171 0 0 34c24 16 49 36 66 50 31 27 43 43 43 58 0 17-16 29-40 29-18 0-39-6-60-17l-4 35c30 11 50 15 78 15 25 0 42-5 56-14 16-11 25-26 25-43 0-21-10-38-40-67-19-19-34-31-58-48l105 0z"/>
<glyph glyph-name="editor-table" unicode="&#57389;" d="M473 315l-119 0 0 98 119 0z m0-139l-119 0 0 99 119 0z m0-138l-119 0 0 99 119 0z m-158 277l-118 0 0 98 118 0z m0-139l-118 0 0 99 118 0z m0-138l-118 0 0 99 118 0z m-157 277l-119 0 0 98 119 0z m0-139l-119 0 0 99 119 0z m0-138l-119 0 0 99 119 0z m-158 474l0-512 512 0 0 512z"/>
<glyph glyph-name="editor-underline" unicode="&#57390;" d="M464 424l0-167c0 0 4-167-208-167-212 0-208 167-208 167l0 167c0 13-26 37-42 41-15 5 0 0 0 0l0 42 208 0 0-42c-17 0-41-23-41-41l0-167c0 0-6-83 124-83 71 0 84 83 84 83l0 167c0 17-25 41-42 41l0 42 166 0 0-42c0 0 15 4 0 0-16-4-41-27-41-41z m0-417l-416 0 0 41 416 0z"/>
<glyph glyph-name="editor-fullscreen" unicode="&#57382;" d="M178 222l-29-29-73-73-25-26 0 94c0 11-10 21-21 21l-9 0 0 0c-12 0-21-9-21-21l0-188 41 0c0 0 0 0 0 0l145 0c12 0 21 9 21 21l0 9c0 12-9 21-21 21l-103 0c0 0 1 1 1 1l29 30 73 73 29 30c10 10 10 27 0 37-10 11-27 11-37 0z m8 135l-73 73-29 30c0 0-1 1-1 1l103 0c12 0 21 9 21 21l0 9c0 12-9 21-21 21l-186 0 0-188c0-12 9-21 21-21l0 0 9 0c11 0 21 10 21 21l0 94 25-25 73-74 29-29c10-11 27-11 37 0 10 10 10 27 0 37z m326-169c0 12-9 21-21 21l0 0-9 0c-11 0-21-10-21-21l0-94-25 26-73 73-29 29c-10 11-27 11-37 0-11-10-11-27 0-37l29-30 72-73 30-30c0 0 1-1 1-1l-104 0c-11 0-20-9-20-21l0-9c0-12 9-21 20-21l145 0c1 0 1 0 1 0l41 0 0 188z m-62 324l-125 0c-11 0-20-9-20-21l0-9c0-12 9-21 20-21l104 0c0 0-1-1-1-1l-29-30-73-73-29-30c-10-10-10-27 0-37 10-11 27-11 37 0l29 29 73 73 25 26 0-94c0-11 10-21 21-21l9 0 0 0c12 0 21 9 21 21l0 188z"/>
<glyph glyph-name="editor-code" unicode="&#57379;" d="M151 376c-12 12-32 12-45 0l-93-94c-1-1-2-2-3-3-3-2-5-5-6-8-7-12-5-27 5-37 2-2 4-4 7-5l91-91c12-13 32-13 44 0 13 12 13 32 0 44l-74 75 74 74c13 12 13 32 0 45z m145 39c-18 5-37-5-42-22l-60-256c-5-18 5-35 23-40 18-4 37 6 41 23l61 256c5 17-5 35-23 39z m212-144c-1 3-3 5-6 8 0 1-1 2-2 2l-94 94c-12 12-32 12-45 0-12-12-12-32 0-45l75-74-75-74c-12-12-12-32 0-44 13-13 33-13 45 0l91 91c2 1 4 2 6 4 10 11 12 26 5 38z"/>
<glyph glyph-name="editor-help" unicode="&#57383;" d="M178 400c-31-17-48-46-50-87l73 0c0 12 4 23 12 34 8 11 22 17 41 17 20 0 34-5 41-14 8-8 12-19 12-29 0-10-4-18-10-26l-15-13-18-12c-19-12-30-23-34-32-5-9-7-26-8-50l68 0c0 11 1 20 3 25 3 9 10 16 19 23l18 11c19 13 31 22 37 30 11 13 17 29 17 47 0 31-13 54-38 69-25 16-57 23-95 23-29 0-53-5-73-16z m78-400c-141 0-256 115-256 256 0 141 115 256 256 256 141 0 256-115 256-256 0-141-115-256-256-256z m-36 158l0-62 75 0 0 62z"/>
<glyph glyph-name="editor-img" unicode="&#57384;" d="M480 49l-448 0c-18 0-32 14-32 33l0 348c0 19 14 33 32 33l448 0c18 0 32-14 32-33l0-348c0-19-14-33-32-33z m-32 351l-384 0 0-288 384 0z m-304-32c26 0 48-21 48-48 0-26-22-47-48-47-26 0-48 21-48 47 0 27 21 48 48 48z m12-136c12 11 30 11 41 0l15-14 64 73c16 18 41 18 57 0l72-81c16-18 16-47 0-65l-156 0c0 0-1-1-1-1l-143 0c-11 11-11 28 0 39z"/>
<glyph glyph-name="editor-link" unicode="&#57385;" d="M307 138l-273 0c-19 0-34 16-34 36l0 163c0 21 15 37 34 37l103 0 0-67-35 0c-12 0-34-25-34-34l0-34c0-8 22-33 34-33l137 0c12 0 34 25 34 33l0 34 68 0 0-98c0-21-15-37-34-37z m171 0l-103 0 0 67 35 0c12 0 34 25 34 34l0 34c0 8-22 33-34 33l-137 0c-12 0-34-25-34-33l0-34-68 0 0 98c0 20 15 37 34 37l273 0c19 0 34-17 34-37l0-163c0-20-15-36-34-36z"/>
<glyph glyph-name="editor-video" unicode="&#57391;" d="M192 166l0 182 160-91z m316 186c-3 34-23 77-65 78-117 8-255 10-374 0-37-4-62-48-65-82-5-72-5-112 0-183 3-34 28-79 65-84 121-7 258-8 374 0 37 7 62 50 65 84 6 71 6 116 0 187z"/>
<glyph glyph-name="alarm-2" unicode="&#57392;" d="M480 160l-64 0 0 128c0 66-40 123-97 147 1 4 1 9 1 13 0 35-29 64-64 64-35 0-64-29-64-64 0-4 1-9 1-13-57-24-97-81-97-147l0-128-64 0c-18 0-32-14-32-32 0-18 14-32 32-32l160 0 0-32c0-36 29-64 64-64 36 0 64 28 64 64l0 32 160 0c18 0 32 14 32 32 0 18-14 32-32 32z"/>
<glyph glyph-name="alarm-rotate" unicode="&#57393;" d="M357 168l-4-5c-11-11-18-26-18-41 0-16 7-30 18-41 6-7 9-15 9-24 0-9-3-18-9-24l-23-23c-13-13-35-13-48 0l-272 270c-7 6-10 15-10 23 0 9 3 18 10 24l23 22c6 6 15 10 24 10 8 0 17-4 24-10 11-11 25-16 40-16 16 0 31 6 42 17l4 4c56 55 122 87 180 87 30 0 55-10 71-25 18-16 27-41 27-70-1-58-33-124-88-178z m142 266c-17-18-48-18-66 0-8 9-13 20-13 32 0 12 5 24 13 33 9 9 21 13 33 13 13 0 24-4 33-13 9-9 13-21 13-33 0-12-4-23-13-32z m-370-378c-10-10-23-16-38-17-14 0-27 6-37 15-10 10-15 23-15 37 0 15 5 28 15 38l38 37 74-73z"/>
<glyph glyph-name="binoculars" unicode="&#57394;" d="M400 93c-26 0-48 22-48 48 0 27 22 48 48 48 26 0 48-21 48-48 0-26-22-48-48-48z m-288 0c-26 0-48 22-48 48 0 27 22 48 48 48 26 0 48-21 48-48 0-26-22-48-48-48z m396 82l-53 241c-4 17-21 30-39 30 0 18-14 32-32 32l-32 0c-18 0-32-14-32-32-18 0-32-14-32-31l0-65-64 0 0 65c0 17-14 32-32 32 0 17-14 31-32 31l-32 0c-18 0-32-14-32-31-18 0-35-14-39-31l-53-239c-2-10-4-19-4-29 0-60 50-119 112-119 60 0 109 32 111 96l1 0 0 97 64 0 0-97 0 0c3-64 52-96 112-96 62 0 112 54 112 115 0 9-2 22-4 31z"/>
<glyph glyph-name="cart-2" unicode="&#57395;" d="M208 31c-26 0-48 21-48 48 0 26 22 47 48 47 26 0 48-21 48-47 0-27-22-48-48-48z m192 0c-26 0-48 21-48 48 0 26 22 47 48 47 26 0 48-21 48-47 0-27-22-48-48-48z m108 335c-15-61-31-123-46-185-4-13-18-23-31-23-80 0-160 0-241 0-15 0-25 8-31 23-19 72-37 160-56 231-24 0-87 0-87 0-9 0-16 8-16 16l0 32c0 9 7 16 16 16 0 0 79 0 111 0l1 0c2 0 3 0 4-1 12-2 21-9 26-22 4-13 7-27 10-41l312 0c18 0 32-14 32-31-1-5-3-10-4-15z"/>
<glyph glyph-name="card" unicode="&#57396;" d="M480 61l-448 0c-18 0-32 15-32 32l0 321c0 17 14 31 32 31l448 0c18 0 32-14 32-32l0-320c0-17-14-32-32-32z m-32 320l-384 0 0-32 384 0z m0-128l-384 0 0-128 384 0z m-40-96l-216 0c-4 0-8 4-8 8l0 16c0 5 4 8 8 8l216 0c5 0 8-3 8-8l0-16c0-4-3-8-8-8z"/>
<glyph glyph-name="bookmark" unicode="&#57397;" d="M417 512l-320 0c-18 0-32-14-32-32l0-448c0-13 8-24 20-29 12-5 25-3 34 7l138 137 137-137c6-7 15-10 23-10 4 0 8 1 12 3 12 5 20 16 20 29l0 448c0 18-14 32-32 32z"/>
<glyph glyph-name="chart-3" unicode="&#57398;" d="M494 218c-9 0-115 6-115 6 0 0-11 2-16-7-2-6-6-15-10-21-7-11 2-18 2-18l81-81c0 0 10-9 21 0 24 31 41 65 50 105 1 5-4 15-13 16z m-159-61c0 0-6 8-17 4-2-2-5-3-8-5-7-4-5-15-5-15l36-110c0 0 6-15 22-7 19 9 37 20 54 34 8 10-2 20-2 20z m177 114c0-5-2-15-14-15l-114 0c-5 0-15 3-15 14-7 56-55 99-113 99-63 0-114-51-114-113 0-58 44-105 100-112 14-3 14-14 14-14 0 0 0-103 0-114 0-14-14-14-16-14-134 8-240 118-240 254 0 140 115 254 256 254 137 0 248-106 256-239z"/>
<glyph glyph-name="chart-4" unicode="&#57399;" d="M494 164l-206 88 154 164c43-41 70-99 70-163 0-32-6-62-18-89z m-270-155c-124 0-224 100-224 224 0 124 100 225 224 225l0-225 206-89c-34-79-113-135-206-135z m41 271l0 225c60 0 114-23 154-61z"/>
<glyph glyph-name="check-square" unicode="&#57400;" d="M199 116l-142 141 40 39 102-101 216 214 40-40z m256 394l-398 0c-31 0-57-25-57-56l0-394c0-31 26-57 57-57l398 0c31 0 57 26 57 57l0 394c0 31-26 56-57 56z"/>
<glyph glyph-name="del-circle" unicode="&#57401;" d="M256 512c-141 0-256-115-256-256 0-141 115-256 256-256 141 0 256 115 256 256 0 141-115 256-256 256z m121-332c6-6 6-16 0-23l-23-22c-6-6-16-6-22 0l-76 76-76-76c-6-6-16-6-23 0l-22 23c-6 6-6 16 0 22l76 76-76 76c-6 6-6 16 0 23l23 22c6 6 16 6 22 0l76-76 76 76c6 6 16 6 23 0l22-23c6-6 6-16 0-22l-76-76z"/>
<glyph glyph-name="comp" unicode="&#57402;" d="M456 125l-400 0c-16 0-28 13-28 29l0 286c-1 21 17 38 38 38l380 0c21 0 38-17 38-38l0-286c1-16-12-29-28-29z m-19 305l-362 0 0-257 362 0 0 257z m32-401l-426 0c-24 0-43 15-43 34 0 12 0 26 0 35 0 6 4 10 10 10l492 0c6 0 10-4 10-10l0-35c0-19-19-34-43-34z m-154 49l-119 0c-5 0-9-4-9-10 0-5 4-9 9-9l119 0c6 0 10 4 10 9 0 6-4 10-10 10z"/>
<glyph glyph-name="cloud-download" unicode="&#57403;" d="M215 236l0 87 82 0 0-87 58 0-99-106-99 106z m207 61c-19 75-85 131-166 131-64 0-119-34-149-88-60-11-107-62-107-127 0-71 58-129 128-129 21 0 254 0 277 0 60 0 107 47 107 107 0 54-38 99-90 106z"/>
<glyph glyph-name="downloaded" unicode="&#57404;" d="M411 158l0-79-314 0 0 79-78 0 0-158 471 0 0 158z m-19 118l-79 0 0 236-118 0 0-236-78 0 137-158z"/>
<glyph glyph-name="link" unicode="&#57405;" d="M476 472c-49 49-118 51-164 6l-32-32c-13-12-13-32-1-44 13-12 33-12 45 0l33 32c23 23 54 13 75-7 11-10 17-24 17-39 0-15-6-29-17-40l-102-100c-47-45-68-24-78-15-12 13-32 12-44 0-13-12-13-32 0-44 21-21 45-32 71-32 31 0 64 16 96 47l102 100c22 22 35 52 35 84 0 31-13 61-36 84z m-289-364l-26-25c-22-22-59-22-81 0-11 10-17 25-17 39 0 15 6 29 17 40l95 94c20 19 57 48 84 21 13-12 33-12 45 0 13 12 13 32 0 45-46 45-114 36-173-22l-96-93c-23-23-35-53-35-85 0-31 12-61 35-84 24-23 55-34 86-34 31 0 62 11 85 34l26 26c13 12 13 32 0 44-12 12-32 12-45 0z"/>
<glyph glyph-name="i-circle" unicode="&#57406;" d="M263 338c-25 0-46 21-46 47 0 26 21 46 46 46 25 0 46-20 46-46 0-26-21-47-46-47z m-72-187c0-1 0-1 0-2-1 0 0 0 0 2z m123-50c-5-4-10-8-16-11-6-2-12-5-19-7-6-1-23-2-31-2-18 0-31 4-40 12-10 8-19 20-19 34 0 6 1 13 2 21 0 0 19 106 19 106 0 2 0 4 1 6 0 2 0 4 1 6 0 2 0 4 0 5 1 1 1 2 1 3 0 4-1 7-2 10-1 3-2 4-4 6-2 1-4 2-7 3-3 0-7 0-11 0 0 0-15 3-15 13 0 13 20 11 19 11 18 0 67 0 91 0 26 0 12-45 16-27-9-43-21-113-21-113-2-8-3-12-5-19-1-7-1-14-1-20 0-7 1-12 4-16 3-3 6-5 11-5 5 0 9 1 13 3 7 3 21 15 27 7 7-10-8-21-14-26z m-58 411c-141 0-256-115-256-256 0-141 115-256 256-256 141 0 256 115 256 256 0 141-115 256-256 256z"/>
<glyph glyph-name="notebook-lines" unicode="&#57407;" d="M466 0l-420 0c-12 0-22 10-22 22l0 389c0 12 10 21 22 21l48 0 0-66c0-36 30-64 65-64l194 0c37 0 65 29 65 64l0 67 49 0c11 0 21-9 21-21l0-390c0-12-10-22-22-22z m-112 216l-195 0c-12 0-22-9-22-21 0-12 10-22 22-22l194 0c13 0 22 10 22 22 1 12-9 21-21 21z m0-120l-195 0c-12 0-22-10-22-22 0-12 10-22 22-22l194 0c13 0 22 10 22 22 1 12-9 22-21 22z m0 250l-195 0c-12 0-22 9-22 19l0 91c0 11 10 21 22 21l75 0 0 13c0 12 10 22 22 22 12 0 22-10 22-22l0-12 75 0c12 0 22-10 22-21l0-90c1-12-9-21-21-21z"/>
<glyph glyph-name="pdf" unicode="&#57408;" d="M405 128l20 0 0 43 42 0 0 17-42 0 0 23 49 0 0 17-69 0z m-81 83l0-66 15 0c6 0 10 0 13 1 3 1 6 2 8 4 2 2 4 5 5 10 2 4 2 10 2 18 0 8 0 13-2 18-1 4-3 7-5 9-3 3-6 4-10 5-3 0-8 1-16 1z m-20 17l0-100 38 0c8 0 14 1 18 2 6 2 11 5 14 8 5 5 8 11 11 18 2 6 3 13 3 21 0 10-1 17-3 24-2 6-5 11-10 16-4 4-9 7-15 9-4 1-10 2-19 2z m-72-17l0-28 11 0c8 0 13 0 16 1 2 1 4 3 6 5 1 2 2 5 2 8 0 3-1 6-3 9-2 2-5 4-8 4-3 1-7 1-15 1z m-21-83l21 0 0 38 13 0c9 0 16 0 21 1 3 1 7 3 10 5 4 3 6 6 9 10 2 4 3 9 3 15 0 8-2 15-6 20-4 5-8 8-14 9-4 1-12 2-24 2l-32 0 0-100z m165 256l-128 0 0 128 6 0c6 0 10-2 14-5l103-103c4-4 5-8 5-14z m-352-384l334 0c10 0 18 9 18 19l0 66-200 0c-8 0-14 7-14 14l0 157c0 8 6 14 14 14l200 0 0 85-157 0 0 157-195 0c-10 0-19-8-19-19l0-474c0-11 9-19 19-19z m159 256l316 0c3 0 6-3 6-6l0-144c0-4-3-7-6-7l-316 0c-4 0-7 3-7 7l0 144c0 3 3 6 7 6z"/>
<glyph glyph-name="pen-square" unicode="&#57409;" d="M416 0l-320 0c-53 0-96 43-96 96l0 352c0 35 29 64 64 64l288 0-64-64-224 0 0-352c0-18 14-32 32-32l320 0c18 0 32 14 32 32l0 192 64 64 0-256c0-53-43-96-96-96z m-281 136l32 128 48-48 48-48z m376 292c0-4-2-9-6-12l-222-223-91 90 158 158 65 65c4 4 9 6 14 6 4 0 7-2 10-4l68-68c3-3 5-7 4-12z"/>
<glyph glyph-name="play-prev" unicode="&#57410;" d="M95 0c35 0 64 29 64 64l0 161 277-214c15-15 44-15 44 16l0 456c0 31-29 31-44 16l-277-214 0 163c0 35-29 64-64 64-36 0-64-29-64-64l0-384c0-35 28-64 64-64z"/>
<glyph glyph-name="play-next" unicode="&#57411;" d="M416 0c-36 0-64 29-64 64l0 161-278-214c-15-15-43-15-43 16l0 456c0 31 28 31 43 16l278-214 0 163c0 35 28 64 64 64 35 0 64-29 64-64l0-384c0-35-29-64-64-64z"/>
<glyph glyph-name="play-circle" unicode="&#57412;" d="M256 0c-141 0-256 115-256 256 0 141 115 256 256 256 141 0 256-115 256-256 0-141-115-256-256-256z m0 471c-118 0-215-97-215-215 0-118 97-215 215-215 118 0 215 97 215 215 0 118-97 215-215 215z m110-228l-159-94c-12-7-22-1-22 13l0 188c0 14 10 20 22 13l159-94c12-7 12-19 0-26z"/>
<glyph glyph-name="play" unicode="&#57413;" d="M31 512l0-512 449 256z"/>
<glyph glyph-name="pin-2" unicode="&#57414;" d="M254 223c-57 0-103 47-103 105 0 57 46 104 103 104 57 0 103-47 103-104 0-58-46-105-103-105z m0 289c0 0-1 0-1 0-1 0-1 0-2 0-109-2-197-91-197-202 0-149 173-290 199-310 25 20 198 161 198 310 0 111-88 200-197 202z"/>
<glyph glyph-name="server" unicode="&#57415;" d="M256 256c-141 0-256 43-256 96l0 64c0 53 115 96 256 96 141 0 256-43 256-96l0-64c0-53-115-96-256-96z m0-256c-141 0-256 43-256 96l0 64c0 3 1 5 1 8 11-49 121-88 255-88 134 0 244 39 255 88 0-2 1-5 1-8l0-64c0-53-115-96-256-96z m0 128c-141 0-256 43-256 96l0 64c0 3 1 5 1 8 11-49 121-88 255-88 134 0 244 39 255 88 0-2 1-5 1-8l0-64c0-53-115-96-256-96z"/>
<glyph glyph-name="warning-circle" unicode="&#57416;" d="M287 131c0 16-13 29-28 29l-8 0c-15 0-28-13-28-29l0-8c0-16 13-29 28-29l8 0c15 0 28 13 28 29z m0 252c0 18-13 33-28 33l-8 0c-15 0-28-15-28-33l0-143c0-17 13-32 28-32l8 0c15 0 28 15 28 32z m-32-383c-140 0-253 115-253 256 0 141 113 256 253 256 140 0 254-115 254-256 0-141-114-256-254-256z"/>
<glyph glyph-name="users-two" unicode="&#57417;" d="M227 221c41 16 71 56 71 104 0 61-48 110-107 110-60 0-108-49-108-110 0-48 30-88 71-104l-10 0c-53 0-144-44-144-98l0-39c0-6 5-11 11-11l362 0c6 0 11 5 11 11l0 39c0 54-91 98-144 98z m152 7c33 16 55 50 55 90 0 56-44 101-98 101-11 0-21-2-31-5 19-25 30-56 30-89 0-30-9-58-24-81 55-21 110-64 110-121l0-20c0-6 4-11 10-11l70 0c6 0 11 5 11 11l0 34c0 50-83 91-132 91z"/>
<glyph glyph-name="weather-cloud" unicode="&#57418;" d="M395 102l-322 0c-40 0-73 33-73 73 0 39 31 71 69 73 4 86 74 155 161 155 60 0 113-33 140-82 12 4 24 7 37 7 58 0 105-51 105-112 0-68-52-114-117-114z"/>
<glyph glyph-name="weather-cloud-circles" unicode="&#57419;" d="M242 146c32 0 58-26 58-58 0-33-26-59-58-59-33 0-59 26-59 59 0 32 26 58 59 58z m-163 0c32 0 59-26 59-58 0-33-27-59-59-59-32 0-58 26-58 59 0 32 26 58 58 58z m325 0c32 0 59-26 59-58 0-33-27-59-59-59-32 0-58 26-58 59 0 32 26 58 58 58z m-9 31l-322 0c-40 0-73 32-73 73 0 38 31 70 69 72 4 87 74 156 161 156 60 0 113-33 140-82 11 4 24 6 36 6 59 0 106-50 106-112 0-68-52-113-117-113z"/>
<glyph glyph-name="weather-cloud-drops-lightning" unicode="&#57420;" d="M429 175c-19-11-60-42-68-72-8-30 8-50 33-57 25-6 49 3 57 33 8 30-11 77-22 96z m-341 0c-19-11-59-42-67-72-8-30 8-50 33-57 24-6 49 3 57 33 7 30-12 77-23 96z m307 31l-92 0-37-44 93 0-223-157 71 98-76 0 87 103-145 0c-40 0-73 33-73 73 0 38 30 70 69 72 3 86 74 154 161 154 60 0 113-33 140-82 11 5 24 7 36 7 59 0 106-50 106-111 0-67-52-113-117-113z"/>
<glyph glyph-name="weather-cloud-moon" unicode="&#57421;" d="M409 22c57 0 103 49 103 110 0 61-47 110-104 110-13 0-25-2-36-6-27 48-79 81-138 81-86 0-156-68-160-153-37-2-68-34-68-72 0-39 33-72 72-72l319 0c4 0 8 1 12 2z m-284 468c21 0 42-6 60-16-48-13-83-57-83-109 0-18 4-35 12-50-6-5-12-10-17-15-14-12-25-27-34-43-38 22-63 62-63 108 0 69 56 125 125 125z"/>
<glyph glyph-name="weather-cloud-one-circle" unicode="&#57422;" d="M241 148c32 0 58-26 58-59 0-32-26-58-58-58-33 0-59 26-59 58 0 33 27 59 59 59z m154 30l-322 0c-40 0-73 33-73 73 0 39 31 71 69 73 4 86 74 155 161 155 60 0 113-33 140-82 11 5 24 7 36 7 59 0 106-50 106-112 0-68-52-114-117-114z"/>
<glyph glyph-name="weather-cloud-one-drop" unicode="&#57423;" d="M395 187l-322 0c-40 0-73 32-73 72 0 39 31 71 69 73 3 86 74 154 161 154 60 0 113-33 140-82 12 5 24 7 37 7 58 0 105-50 105-111 0-68-52-113-117-113z m-146-33c11-19 30-67 22-97-8-30-32-39-57-33-25 7-41 27-33 57 8 30 49 62 68 73z"/>
<glyph glyph-name="weather-cloud-rain-snow" unicode="&#57424;" d="M312 158c11 0 20-9 20-19l0-12 10 6c9 5 21 2 26-7 6-9 3-21-7-27l-10-5 10-6c9-6 13-18 7-27-5-9-17-12-26-7l-10 6 0-12c0-10-9-19-20-19-10 0-19 9-19 19l0 12-10-6c-9-5-21-2-26 7-6 9-2 21 7 27l10 6-10 5c-9 6-13 18-7 27 5 9 17 12 26 7l10-6 0 12c0 10 9 19 19 19z m-125 5c11-19 30-67 22-96-8-30-32-40-57-33-25 6-41 27-33 57 8 29 49 61 68 72z m208 20l-322 0c-40 0-73 33-73 73 0 39 31 70 69 72 4 86 74 155 161 155 60 0 113-33 140-82 11 5 24 7 36 7 59 0 106-50 106-112 0-67-52-113-117-113z"/>
<glyph glyph-name="weather-cloud-sun" unicode="&#57425;" d="M408 30c57 1 104 51 104 112 0 62-47 112-105 112-13 0-25-2-37-6-27 49-80 82-140 82-87 0-157-69-161-155-38-2-69-34-69-73 0-40 33-73 73-73l322 0c4 0 8 0 13 1z m-1 437c-7 4-15 2-19-5l-11-18c-4-7-2-16 5-20l1-1c7-4 16-1 20 6l11 18c4 7 1 16-6 20z m66-66c-4 7-12 10-19 6l-19-11c-7-4-9-13-5-20l0-1c4-7 13-9 20-5l18 11c7 4 10 12 6 19z m24-90l0-1c0-8-6-15-14-15l-22 0c-7 0-14 7-14 15l0 1c0 8 7 15 14 15l22 0c8-1 14-7 14-15z m-336 90l1 1c4 7 13 10 19 6l19-11c7-4 9-13 5-19l0-2c-4-7-13-9-20-5l-18 11c-7 4-10 12-6 19z m66 66c-7-4-9-13-5-19l11-19c4-7 12-9 19-5l1 0c7 4 10 13 6 20l-11 19c-4 6-13 9-19 5z m90 25l2 0c8 0 14-7 14-15l0-21c0-8-6-15-14-15l-2 0c-8 0-14 7-14 15l0 21c0 8 6 15 14 15z m0-71c61 0 110-49 110-110 0-6 0-13-1-19-6 1-13 2-19 2-7 0-13-1-20-2-15 20-34 37-56 50-30 17-64 27-101 27-2 0-4 0-6 0 19 31 54 52 93 52z"/>
<glyph glyph-name="weather-cloud-two-circles" unicode="&#57426;" d="M329 152c33 0 59-26 59-58 0-32-26-58-59-58-32 0-58 26-58 58 0 32 26 58 58 58z m-162 0c32 0 58-26 58-58 0-32-26-58-58-58-32 0-58 26-58 58 0 32 26 58 58 58z m228 30l-322 0c-40 0-73 33-73 73 0 38 31 70 69 72 4 86 74 154 161 154 60 0 113-33 140-81 12 4 24 6 37 6 58 0 105-50 105-111 0-67-52-113-117-113z"/>
<glyph glyph-name="weather-cloud-two-drops" unicode="&#57427;" d="M395 187l-322 0c-40 0-73 33-73 73 0 39 31 71 69 73 4 86 74 155 161 155 60 0 113-33 140-82 11 4 24 7 36 7 59 0 106-51 106-113 0-67-52-113-117-113z m-191-33c11-19 31-67 23-97-8-30-32-39-57-33-25 7-41 27-33 57 8 30 49 62 67 73z m133 0c11-19 31-67 23-97-8-30-32-39-57-33-25 7-41 27-33 57 8 30 48 62 67 73z"/>
<glyph glyph-name="weather-cloud-two-snow" unicode="&#57428;" d="M179 157c10 0 19-9 19-19l0-12 10 6c9 5 21 2 26-7 6-9 3-21-7-26l-10-6 10-5c10-6 13-18 7-27-5-9-17-12-26-7l-10 6 0-11c0-11-9-20-19-20-11 0-20 9-20 20l0 11-10-6c-9-5-21-2-26 7-5 9-2 21 7 26l10 6-10 5c-9 6-12 18-7 27 5 9 17 12 26 7l10-6 0 12c0 10 9 19 20 19z m148 0c11 0 20-9 20-19l0-12 10 6c9 5 21 2 26-7 5-9 2-21-7-26l-10-6 10-5c9-6 12-18 7-27-5-9-17-12-26-7l-10 6 0-11c0-11-9-20-20-20-10 0-19 9-19 20l0 11-10-6c-9-5-21-2-26 7-6 9-3 21 7 26l10 6-10 5c-10 6-13 18-7 27 5 9 17 12 26 7l10-6 0 12c0 10 9 19 19 19z m68 24l-322 0c-40 0-73 33-73 73 0 38 30 70 69 72 3 85 74 154 161 154 60 0 113-33 140-82 11 5 24 7 36 7 59 0 106-50 106-111 0-67-52-113-117-113z"/>
<glyph glyph-name="weather-clouds" unicode="&#57429;" d="M436 32c42 0 76 30 76 74 0 41-31 74-69 74-8 0-16-2-23-5-18 32-53 54-92 54-57 0-103-45-105-102-25-1-45-22-45-47 0-26 21-47 47-47l211 0z m-294 129l-116 0c-14 0-26 12-26 26 0 14 11 25 25 26 1 31 27 56 58 56 21 0 40-12 50-30 4 2 8 3 13 3 21 0 38-18 38-40 0-25-19-41-42-41z m306 114l-138 0c-17 0-31 14-31 31 0 17 13 30 30 31 1 37 31 66 68 66 26 0 48-14 60-35 5 2 10 3 16 3 25 0 45-21 45-48 0-29-22-48-50-48z m-248 72l-152 0c-18 0-34 15-34 34 0 18 15 33 33 34 1 41 35 73 76 73 28 0 52-15 66-39 5 2 11 4 17 4 27 0 49-24 49-53 0-32-24-53-55-53z"/>
<glyph glyph-name="weather-clound-lightning" unicode="&#57430;" d="M395 209l-101 0-24-30 105 0-249-176 83 116-87 0 76 90-125 0c-40 0-73 32-73 73 0 39 31 70 69 72 4 87 74 156 161 156 60 0 113-33 140-82 12 4 24 7 37 7 58 0 105-51 105-113 0-68-52-113-117-113z"/>
<glyph glyph-name="weather-sun" unicode="&#57431;" d="M384 478c-10 5-22 2-28-8l-15-26c-6-10-2-22 7-28l2-1c10-5 22-2 28 8l15 26c6 10 2 22-7 28z m94-94c-6 10-19 13-28 8l-27-16c-9-5-13-18-7-27l1-2c6-10 18-13 28-8l26 16c10 5 13 18 8 27z m34-128l0-2c0-11-9-20-20-20l-31 0c-11 0-20 9-20 20l0 2c0 11 9 20 20 20l31 0c11 0 20-9 20-20z m-34-128c5 10 2 22-8 28l-26 15c-10 6-22 2-28-7l-1-2c-6-10-2-22 8-28l26-15c10-6 22-2 28 7z m-94-94c10 6 13 19 8 28l-16 27c-5 9-18 13-27 7l-2-1c-10-6-13-18-8-28l15-26c6-10 19-13 28-8z m-126-34l-2 0c-11 0-20 9-20 20l0 31c0 11 9 20 20 20l2 0c11 0 20-9 20-20l0-31c0-11-9-20-20-20z m-130 34c10-5 22-2 28 8l15 26c6 10 2 22-7 28l-2 1c-10 6-22 2-28-8l-15-26c-6-10-2-22 7-28z m-94 94c6-10 19-13 28-8l27 16c9 5 13 18 7 27l-1 2c-6 10-18 13-28 8l-26-16c-10-5-13-18-8-27z m-34 126l0 2c0 11 9 20 20 20l31 0c11 0 20-9 20-20l0-2c0-11-9-20-20-20l-31 0c-11 0-20 9-20 20z m34 130c-5-10-2-22 8-28l26-15c10-6 22-2 28 7l1 2c6 10 2 22-8 28l-26 15c-10 6-22 2-28-7z m94 94c-10-6-13-18-8-28l16-26c5-10 18-13 27-8l2 1c10 6 13 18 8 28l-16 26c-5 10-18 13-27 8z m128 34l2 0c11 0 20-9 20-20l0-31c0-11-9-20-20-20l-2 0c-11 0-20 9-20 20l0 31c0 11 9 20 20 20z m1-107c82 0 150-67 150-150 0-82-68-150-150-150-83 0-150 68-150 150 0 83 67 150 150 150z"/>
<glyph glyph-name="weather-snowflake" unicode="&#57432;" d="M37 384c17 28 54 38 82 22l80-46 0 92c0 33 27 60 60 60 34 0 61-27 61-60l0-92 79 46c29 16 66 6 83-22 16-29 6-66-23-82l-79-46 79-46c29-16 39-54 23-82-17-29-54-39-83-22l-79 46 0-92c0-33-27-60-61-60-33 0-60 27-60 60l0 92-80-46c-28-17-65-7-82 22-17 29-7 66 22 82l79 46-79 46c-29 16-39 53-22 82z"/>
<glyph glyph-name="weather-snow" unicode="&#57433;" d="M105 159c11 0 20-8 20-19l0-11 10 5c9 6 21 3 26-7 5-9 2-21-7-26l-10-6 10-6c9-5 12-17 7-26-5-9-17-12-26-7l-10 6 0-12c0-10-9-19-20-19-10 0-19 9-19 19l0 12-10-6c-9-5-21-2-27 7-5 9-2 21 8 26l10 6-10 6c-10 5-13 17-8 26 6 10 18 13 27 8l10-6 0 11c0 11 9 19 19 19z m148 0c11 0 20-8 20-19l0-11 10 5c9 6 21 3 26-7 6-9 2-21-7-26l-10-6 10-6c9-5 13-17 7-26-5-9-17-12-26-7l-10 6 0-12c0-10-9-19-20-19-10 0-19 9-19 19l0 12-10-6c-9-5-21-2-26 7-6 9-2 21 7 26l10 6-10 6c-9 5-13 17-7 26 5 10 17 13 26 8l10-6 0 11c0 11 9 19 19 19z m149 0c11 0 19-8 19-19l0-11 10 5c9 6 21 3 27-7 5-9 2-21-8-26l-10-6 10-6c10-5 13-17 8-26-6-9-18-12-27-7l-10 6 0-12c0-10-8-19-19-19-11 0-20 9-20 19l0 12-10-6c-9-5-21-2-26 7-5 9-2 21 7 26l10 6-10 6c-9 5-12 17-7 26 5 10 17 13 26 8l10-6 0 11c0 11 9 19 20 19z m-7 25l-322 0c-40 0-73 32-73 72 0 39 31 70 69 73 4 85 74 154 161 154 60 0 113-33 140-82 12 5 24 7 37 7 58 0 105-50 105-112 0-67-52-112-117-112z"/>
<glyph glyph-name="weather-rain" unicode="&#57434;" d="M395 189l-322 0c-40 0-73 33-73 73 0 38 31 70 69 72 3 86 74 154 161 154 60 0 113-33 140-81 11 4 24 6 36 6 59 0 106-50 106-111 0-67-52-113-117-113z m2-32c11-19 30-67 22-97-8-29-32-39-57-32-25 6-41 26-33 56 8 30 49 62 68 73z m-267 0c11-19 30-67 22-97-8-29-32-39-57-32-25 6-41 26-33 56 8 30 49 62 68 73z m133 0c11-19 30-67 22-97-8-29-32-39-57-32-25 6-41 26-33 56 8 30 49 62 68 73z"/>
<glyph glyph-name="weather-one-snow" unicode="&#57435;" d="M253 161c11 0 20-9 20-19l0-12 10 6c9 5 21 2 26-7 6-9 2-21-7-26l-10-6 10-6c9-5 13-17 7-26-5-10-17-13-26-7l-10 5 0-11c0-11-9-19-20-19-10 0-19 8-19 19l0 11-10-5c-9-6-21-3-26 7-6 9-3 21 7 26l10 6-10 6c-9 5-13 17-7 26 5 9 17 13 26 7l10-5 0 11c0 10 9 19 19 19z m142 24l-322 0c-40 0-73 33-73 73 0 38 31 70 69 72 4 86 74 155 161 155 60 0 113-33 140-82 12 4 24 7 37 7 58 0 105-50 105-112 0-67-52-113-117-113z"/>
<glyph glyph-name="weather-moon-small-cloud" unicode="&#57436;" d="M460 1c29 0 52 25 52 55 0 31-24 57-53 57-6 0-12-2-18-4-14 25-40 41-70 41-43 0-79-34-81-77-19-1-34-17-34-37 0-20 16-36 36-36l161 0c3 0 5 0 7 1z m-254 511c36 0 70-9 100-26-79-22-137-94-137-181 0-73 42-136 103-167-7-10-12-21-15-33-16-4-33-6-51-6-114 0-206 92-206 206 0 114 92 207 206 207z"/>
<glyph glyph-name="weather-moon-cloud-rain" unicode="&#57437;" d="M441 106c39 0 71 28 71 69 0 38-29 69-64 69-8 0-16-2-23-4-16 30-49 50-85 50-53 0-97-42-99-95-23-1-42-21-42-45 0-24 20-44 44-44z m-1-25c7-12 19-41 14-59-5-19-20-25-35-21-15 4-25 17-20 35 5 19 30 38 41 45z m-164 0c7-12 19-41 14-59-5-19-20-25-35-21-15 4-25 17-20 35 5 19 30 38 41 45z m82 0c7-12 19-41 14-59-5-19-20-25-35-21-15 4-25 17-20 35 5 19 30 38 41 45z m-166 431c34 0 65-9 93-24-74-21-128-88-128-169 0-39 13-75 34-104-3-2-5-5-8-7-14-15-23-36-23-58 0-7 1-15 3-22-92 14-163 94-163 191 0 107 86 193 192 193z"/>
<glyph glyph-name="weather-moon-cloud" unicode="&#57438;" d="M433 1c44 0 79 38 79 84 0 46-36 84-79 84-10 0-19-2-27-6-21 37-61 62-106 62-65 0-118-51-121-116-29-2-52-26-52-55 0-30 25-54 55-54l242 0c3 0 6 0 9 1z m-225 511c36 0 70-9 100-26-80-22-138-95-138-181 0-31 7-59 20-85l-1-1c-22-21-38-48-45-79-11-5-21-12-29-21-68 34-115 105-115 186 0 114 93 207 208 207z"/>
<glyph glyph-name="weather-moon" unicode="&#57439;" d="M322 512c45 0 87-12 123-32-98-27-170-117-170-224 0-107 72-197 170-224-36-21-79-32-123-32-142 0-257 115-257 256 0 141 115 256 257 256z"/>
<glyph glyph-name="weather-lightning" unicode="&#57440;" d="M413 291l-316-289c-3-3-7-3-9 0-3 2-4 6-2 9l133 215c2 3 2 7 0 11-2 3-5 5-9 5l-66 0c-8 0-15 4-19 11-3 7-3 15 2 21l156 221c7 11 19 17 33 17l80 0c8 0 15-4 18-11 4-7 3-15-1-21l-92-131c-3-5-3-10-1-14 3-5 7-8 12-8l67 0c9 0 16-5 19-13 3-8 1-17-5-23z"/>
<glyph glyph-name="weather-house-water" unicode="&#57441;" d="M336 500c0 7 6 12 13 12l50 0c6 0 12-6 12-12l0-102-75 74z m114-214l-39 0 0-189c-9-3-18-6-27-6-25 0-62 29-78 36l0 114-91 0 0-108c-29-16-58-42-87-42-9 0-10 3-18 6l0 189-39 0c-8 0-15 4-17 11-3 7-2 15 4 20l187 188c7 8 23 8 31 0l187-188c6-5 7-13 4-20-2-7-9-11-17-11z m-174-121l0 30 14 0 0-30z m218-113c-39-11-68-52-110-52-43 0-87 54-129 54-43 0-85-54-127-54-37 0-74 40-110 51-11 4-18 13-18 24l0 5c0 9 4 17 12 21 8 5 16 5 24 1 31-15 61-43 92-43 42 0 84 53 127 53 43 0 86-53 129-53 31 0 61 27 92 43 8 4 17 4 24-1 8-4 12-12 12-21l0-5c0-11-7-20-18-23z"/>
<glyph glyph-name="weather-funnel" unicode="&#57442;" d="M308 90c-2-9-2-19-2-29 0-81-96-81-96 0 0 10-1 20-1 29z m32 106c-12-24-21-49-27-75l-108 0c-5 27-12 52-21 75z m63 105c-16-23-33-48-48-75l-185 0c-13 28-30 53-47 75z m68 106c-11-23-28-48-47-76l-324 0c-22 28-42 52-54 76z m-385 105l344 0c29 0 53-27 53-60 0-5-1-10-2-15l-447 0c-1 5-2 10-2 15 0 33 24 60 54 60z"/>
<glyph glyph-name="weather-drop" unicode="&#57443;" d="M253 512c61-75 167-210 167-350 0-103-75-162-167-162-92 0-166 59-166 162 0 140 106 277 166 350z"/>
<glyph glyph-name="weather-sun-cloud" unicode="&#57444;" d="M256 510l2 0c11 0 20-9 20-20l0-30c0-12-9-21-20-21l-2 0c-11 0-20 9-20 21l0 30c0 11 9 20 20 20z m128-34c-10 6-22 2-28-8l-15-26c-6-10-2-22 7-28l2-1c10-5 22-2 28 8l15 26c6 10 2 22-7 28z m94-93c-6 9-19 13-28 7l-27-15c-9-6-13-18-7-28l1-2c6-9 18-13 28-7l26 15c10 6 13 18 8 28z m34-128l0-2c0-11-9-21-20-21l-31 0c-11 0-20 9-20 21l0 2c0 11 9 20 20 20l31 0c11 0 20-9 20-20z m-478-128c6-10 19-13 28-7l27 15c9 5 13 18 7 27l-1 2c-6 10-18 13-28 8l-26-16c-10-5-13-18-8-27z m-34 125l0 2c0 11 9 20 20 20l31 0c11 0 20-9 20-20l0-2c0-11-9-20-20-20l-31 0c-11 0-20 9-20 20z m34 130c-5-9-2-22 8-27l26-16c10-5 22-2 28 8l1 2c6 9 2 22-8 27l-26 16c-10 5-22 2-28-8z m94 94c-10-6-13-18-8-28l16-26c5-10 18-13 27-7l2 1c10 5 13 18 8 27l-16 27c-5 9-18 12-27 7z m303-474c43 1 78 38 78 84 0 46-36 83-79 83-9 0-19-1-27-5-21 37-60 61-105 61-65 0-117-51-120-115-29-2-52-25-52-54 0-30 25-54 55-54l241 0c3 0 6 0 9 0z m-63 245c-20 12-45 17-70 17-43 0-81-17-110-45 0 0-11-9-27-35-12-21-17-39-17-39-27 28-44 67-44 110 0 86 69 156 156 156 86 0 157-70 157-156 0-12-2-24-5-36 0 0-20 17-40 28z"/>
<glyph glyph-name="weather-sun-clouds" unicode="&#57445;" d="M452 346l1 0c3-9-1-19-9-23l-23-9c-9-4-19 0-23 9l0 1c-4 9 1 19 9 22l23 10c9 3 19-1 22-10z m15-108l0-1c-2-10-10-16-20-15l-24 3c-9 1-16 10-15 19l0 1c1 10 10 16 20 15l24-3c9-1 16-10 15-19z m-183 237l1 0c9-1 16-10 15-19l-4-24c-1-10-10-16-19-15l-1 0c-9 1-16 10-15 19l3 24c2 10 10 16 20 15z m-35-80c-8-1-17-2-24-4-4-9-9-16-15-23-21-23-55-22-55-22-19-23-30-55-29-88 4-71 65-126 137-122 0 0 6 13 25 31 21 20 49 33 80 33 13 21 19 46 18 72-4 72-65 126-137 123z m211-383c-2 0-4 0-6 0l-162 0c-20 0-36 16-36 36 0 19 15 35 34 36 2 43 38 78 81 78 30 0 56-17 70-41 6 2 12 3 18 3 30 0 53-25 53-56 0-30-23-55-52-56z m-301 369c-2-1-4-1-5-1l-126 0c-15 0-28 13-28 28 0 15 12 28 27 29 1 33 29 60 63 60 23 0 43-13 54-32 5 2 9 2 14 2 23 0 42-19 42-43-1-24-19-43-41-43z m41-320l-1 0c-9 2-14 12-12 21l7 23c2 10 12 15 21 13l1-1c9-2 14-12 12-21l-7-23c-2-10-12-15-21-12z m-95 55l-1 1c-6 6-6 17 0 24l18 17c7 7 18 7 24 0l1-1c7-6 7-17 0-24l-18-17c-6-7-17-7-24 0z m-54 95l-1 1c-2 9 3 18 13 21l23 6c10 2 19-3 21-12l1-1c2-9-4-19-13-21l-23-6c-10-3-19 3-21 12z m0 110l0 1c3 9 12 14 21 12l24-7c9-2 15-12 12-21l0-1c-3-9-12-14-21-12l-24 7c-9 2-15 11-12 21z m334 112l1 0c8-6 9-17 3-24l-15-20c-6-7-16-9-24-3l-1 1c-7 5-9 16-3 24l15 19c6 8 17 9 24 3z"/>
<glyph glyph-name="weather-sun-rain" unicode="&#57446;" d="M286 500l1 0c9-4 14-14 11-22l-9-24c-3-9-13-14-22-10l-1 0c-9 3-14 13-10 22l8 24c3 9 14 13 22 10z m92-64c-7 8-18 9-25 3l-19-16c-8-7-9-17-2-25l0-1c6-7 17-8 25-2l19 16c7 6 8 17 2 25z m-240-338l-1 0c-9 3-13 13-10 22l9 24c3 8 13 13 22 10l1-1c9-3 14-13 10-22l-8-23c-3-9-14-14-23-10z m-91 63c6-7 17-8 25-2l19 16c7 6 8 17 2 25l0 1c-7 7-18 8-25 2l-19-16c-8-6-9-17-2-25z m-46 101l-1 1c-1 10 5 19 15 20l24 4c10 2 19-4 20-14l1-1c1-9-5-18-15-20l-25-4c-9-2-18 5-19 14z m9 111l1 1c3 8 13 13 22 10l23-9c10-3 14-13 11-22l0-1c-4-9-14-14-23-10l-23 8c-9 4-14 14-11 23z m64 90c-7-6-8-17-2-24l16-19c7-8 17-8 25-2l1 0c7 6 8 17 2 25l-16 19c-6 7-17 8-25 2z m292-137l0 1c-2 9 5 18 14 20l25 4c9 2 18-4 20-14l0-1c2-9-4-18-14-20l-25-4c-9-2-18 4-20 14z m-191 184l2 0c9 2 18-4 20-14l4-24c2-10-5-19-14-20l-1-1c-10-1-19 5-20 14l-5 25c-1 9 5 18 14 20z m265-403c40 0 72 28 72 69 0 38-29 69-65 69-8 0-15-1-22-4-17 30-50 50-87 50-53 0-97-42-99-95-24-1-43-20-43-44 0-25 20-45 45-45z m-1-25c7-11 19-41 14-59-5-19-20-24-35-20-15 4-25 16-20 35 5 18 30 38 41 44z m-165 0c7-11 19-41 14-59-5-19-20-24-35-20-16 4-25 16-21 35 6 18 30 38 42 44z m83 0c7-11 18-41 14-59-5-19-20-24-36-20-15 4-25 16-20 35 5 18 30 38 42 44z m-167 346c68 12 134-31 150-98l-2 0c-37 0-71-14-96-38-18-18-31-40-38-66-15-7-34-22-42-48-40 17-71 53-79 98-13 71 35 139 107 152z"/>
<glyph glyph-name="weather-thermometer" unicode="&#57447;" d="M288 346l-60 0 0-118c-31-12-53-42-53-77 0-46 37-83 83-83 45 0 82 37 82 83 0 35-21 65-52 77z m-30 166c49 0 90-41 90-90l0-151c37-27 60-71 60-120 0-83-67-151-150-151-83 0-150 68-150 151 0 49 23 93 60 120l0 151c0 49 40 90 90 90z"/>
<glyph glyph-name="weather-umbrella" unicode="&#57448;" d="M337 124c0 18 17 33 36 33 18 0 36-15 36-33l0-34 0 0c0-24-11-47-27-63-16-17-42-27-66-27l0 0 0 0c-25 0-50 10-67 27-16 16-26 38-26 63l0 0 0 0 0 236c-31 13-60 6-90-19-32 34-89 34-123 0 34 90 114 157 213 168l0 4c0 18 17 33 35 33 19 0 36-15 36-33l0-4c97-13 174-79 208-168-43 34-86 34-123 0-24 23-55 31-85 22l0-237 0 0 0 0c0-11 10-21 22-21 14 0 21 10 21 21l0 0z"/>
<glyph glyph-name="weather-waves" unicode="&#57449;" d="M36 423c-8 4-17 4-24-1-8-4-12-12-12-21l0-5c0-11 7-20 18-23 37-12 73-51 110-51 42 0 84 53 127 53 43 0 86-53 129-53 42 0 71 40 110 51 11 3 18 12 18 24l0 4c0 9-4 17-12 21-7 5-16 5-24 1-31-15-61-43-92-43-43 0-86 53-129 53-43 0-85-53-127-53-30 0-61 28-92 43z m0-239c-8 4-17 3-24-1-8-5-12-13-12-21l0-5c0-11 7-21 18-24 36-11 73-51 110-51 42 0 84 54 127 54 43 0 86-54 129-54 42 0 71 41 110 51 11 3 18 13 18 24l0 4c0 9-4 17-12 22-7 4-16 5-24 0-31-15-61-43-92-43-43 0-86 54-129 54-43 0-84-54-127-54-30 0-61 28-92 44z m0 120c31-16 61-44 92-44 42 0 84 54 127 54 43 0 86-54 129-54 31 0 61 28 92 44 8 4 17 3 24-1 8-5 12-13 12-21l0-5c0-11-7-21-18-24-39-10-68-51-110-51-43 0-87 54-129 54-43 0-85-54-127-54-37 0-74 40-110 51-11 3-18 13-18 24l0 5c0 8 4 16 12 21 7 4 16 5 24 1z"/>
<glyph glyph-name="wp" unicode="&#57450;" d="M481 379c1-8 1-17 1-26 0-26-5-56-19-92l-78-226c76 44 127 127 127 221 0 45-11 86-31 123z m-221-145l-76-224c23-6 47-10 72-10 30 0 58 5 85 15-1 1-1 2-2 3z m169 35c0 32-12 54-21 71-13 21-25 39-25 60 0 23 17 45 43 45 1 0 2 0 3 0-46 42-106 67-173 67-89 0-168-46-214-115 6-1 12-1 17-1 26 0 68 4 68 4 14 0 15-20 1-22 0 0-13-1-29-2l93-277 56 168-40 109c-14 1-27 2-27 2-13 1-12 22 2 22 0 0 42-4 68-4 26 0 68 4 68 4 14 0 15-20 1-22 0 0-13-1-29-2l92-275 26 85c13 33 20 61 20 83z m-429-13c0-101 59-189 144-230l-122 334c-14-32-22-67-22-104z"/>
<glyph glyph-name="player-full-screen" unicode="&#57451;" d="M70 211l-70 0 0-139 140 0 0 69-70 0z m-70 233l0-140 70 0 0 70 70 0 0 70z m442 0l-70 0 0-70 70 0 0-70 70 0 0 140z m0-303l-70 0 0-69 140 0 0 139-70 0z"/>
<glyph glyph-name="player-next" unicode="&#57452;" d="M455 427l0-154-256 154 0-120-199 120 0-342 199 120 0-120 256 154 0-154 57 0 0 342z"/>
<glyph glyph-name="player-settings" unicode="&#57453;" d="M444 205c-4-16-11-31-19-45 2-1 43-53 18-79l-13-12c-19-19-67 11-78 18-15-8-31-14-47-19l3 0c0 0-9-68-45-68l-13 0c-28 0-43 59-46 70-16 4-32 11-46 19l2-2c0 0-54-43-79-17l-12 10c-20 19 12 71 18 81-7 14-13 28-18 43-10 3-69 19-69 47l0 12c0 32 56 43 69 45 4 15 10 30 18 44-6 9-39 61-19 81l12 10c23 23 69-10 80-18 14 8 29 14 44 19 4 14 19 68 46 68l12 0c32 0 43-53 45-68 16-4 31-10 45-18 12 7 61 37 80 18l11-12c22-22-9-67-18-79 8-14 15-29 19-45 4 0 68-10 68-45l0-13c0-26-54-42-68-45z m-188 165c-63 0-114-51-114-114 0-63 51-114 114-114 63 0 114 51 114 114 0 63-51 114-114 114z"/>
<glyph glyph-name="player-sound" unicode="&#57454;" d="M288 29l0 34c108 13 192 93 192 190 0 97-84 178-192 191l0 34c124 0 224-101 224-225 0-123-100-224-224-224z m-288 128l0 193 96 0 128 128 0-449-128 128-96 0z m384 96c0-53-43-96-96-96l0 193c53 0 96-43 96-97z"/>
<glyph glyph-name="player-subtitres" unicode="&#57455;" d="M0 85l0 342 512 0 0-342z m85 57l342 0 0 29-342 0z m370 114l-398 0 0-29 398 0 0 29z"/>
<glyph glyph-name="player-wide-screen" unicode="&#57456;" d="M0 75l0 358 512 0 0-358z m435 282l-358 0 0-205 358 0z"/>
<glyph glyph-name="case-3" unicode="&#57457;" d="M512 291l0 67c0 27-22 50-50 50l-119 0c-6 109-171 109-174 0l-119 0c-28 0-50-23-50-50l0-67 212-58 0 15c0 7 6 13 13 13l62 0c7 0 13-6 13-13l0-15z m-462-265l412 0c28 0 50 22 50 50l0 196-212-58 0-42c0-7-6-13-13-13l-62 0c-7 0-13 6-13 13l0 42-212 58 0-196c0-28 22-50 50-50z m226 147l-40 0c-5 0-9 4-9 9l0 56c0 5 4 9 9 9l40 0c5 0 9-4 9-9l0-56c0-5-4-9-9-9z m32 235l-104 0c6 67 99 66 104 0z"/>
<glyph glyph-name="github" unicode="&#57458;" d="M256 512c-141 0-256-117-256-262 0-116 73-215 175-249 13-3 17 5 17 12 0 6 0 24 0 46-71-16-86 34-86 34-12 31-29 39-29 39-23 16 2 16 2 16 26-2 39-28 39-28 23-40 60-28 75-21 2 17 9 28 16 35-57 6-116 29-116 130 0 28 9 52 26 70-3 7-12 33 2 69 0 0 22 7 71-27 20 6 42 9 64 9 21 0 43-3 64-9 48 34 70 27 70 27 14-36 5-62 3-69 16-18 26-42 26-70 0-101-60-124-117-130 9-8 17-24 17-48 0-33 0-64 0-73 0-7 5-15 18-12 101 34 174 133 174 249 1 145-114 262-255 262z"/>
<glyph glyph-name="learn" unicode="&#57459;" d="M256 0c-94 0-171 36-171 80l0 148 131-86c12-8 26-12 40-12 14 0 28 4 40 12l131 86 0-148c0-44-77-80-171-80z m246 321l-224-148c-7-4-14-6-22-6-8 0-15 2-21 6l-225 148c-6 4-10 11-10 18 0 8 3 15 10 19l224 148c7 4 14 6 22 6 7 0 15-2 21-6l225-148c6-4 10-11 10-19 0-7-4-14-10-18z m0-295c-3-3-7-5-11-5l-27 0c-4 0-8 2-10 5-3 4-4 8-3 12l9 44c-5 5-8 12-8 20 0 8 3 15 8 20l0 128 35 23 0-151c5-5 9-12 9-20 0-8-3-15-8-20l9-44c0-4-1-8-3-12z"/>
<glyph glyph-name="play-next-square" unicode="&#57460;" d="M48 0c-26 0-48 22-48 48l0 416c0 26 22 48 48 48l416 0c26 0 48-22 48-48l0-416c0-26-22-48-48-48z m48 400l0-288c0-19 17-19 27-10l133 135 0-125c0-19 18-19 27-10l126 137c9 9 9 25 0 34l-126 137c-9 9-27 9-27-10l0-125-133 135c-9 9-27 9-27-10z"/>
<glyph glyph-name="play-prev-square" unicode="&#57461;" d="M464 0l-416 0c-26 0-48 22-48 48l0 416c0 26 22 48 48 48l416 0c26 0 48-22 48-48l0-416c0-26-22-48-48-48z m-48 400c0 19-18 19-27 10l-133-134 0 124c0 19-18 19-27 10l-126-137c-9-9-9-25 0-34l126-137c9-9 27-9 27 10l0 124 133-134c10-9 27-9 27 10l0 288z"/>
<glyph glyph-name="play-square" unicode="&#57462;" d="M144 98l0 318 240-159z m319 412l-414 0c-27 0-49-22-49-48l0-410c0-27 22-49 49-49l414 0c27 0 49 22 49 49l0 410c0 26-22 48-49 48z"/>
<glyph glyph-name="pucture-double" unicode="&#57463;" d="M480 96l-64 0 0-64c0-18-14-32-32-32l-352 0c-18 0-32 14-32 32l0 352c0 18 14 32 32 32l64 0 0 64c0 18 14 32 32 32l352 0c18 0 32-14 32-32l0-352c0-18-14-32-32-32z m-416 256l0-288 288 0 0 288z m384 96l-288 0 0-32 224 0c18 0 32-14 32-32l0-224 32 0 0 288z m-144-352l-192 0c-9 0-16 4-16 14l0 68c0 9 5 22 11 29l41 44c7 6 17 7 24 1l135-115c7-5 13-14 13-19 0-5 0-8 0-8 0-9-7-14-16-14z m-32 128c-26 0-48 21-48 48 0 26 22 48 48 48 26 0 48-22 48-48 0-27-22-48-48-48z"/>
<glyph glyph-name="snippet" unicode="&#57464;" d="M0 385l0 105c0 12 10 22 22 22l468 0c12 0 22-10 22-22l0-105z m137 73c-10 8-25 8-34 0-4-5-7-12-7-18 0-6 3-13 6-16 5-5 11-8 17-8 6 0 13 3 17 6 4 5 7 12 8 18 0 6-2 13-7 18z m96 0c-10 8-26 8-34 0-5-5-7-11-7-17 0-6 2-13 7-18 5-5 11-7 17-7 6 0 12 2 16 6 4 5 6 11 8 19 0 6-3 12-7 17z m257-458l-468 0c-12 0-22 10-22 22l0 330 512 0 0-330c0-12-10-22-22-22z m-272 218c8 9 8 22 0 31-9 9-22 9-30 0l-71-73c-8-9-8-23 0-31l71-74c4-5 9-7 15-7 5 0 10 2 14 7 9 9 9 22 0 31l-55 58z m192-42l-70 74c-9 8-21 8-30 0-8-9-8-23 0-32l56-58-56-58c-8-9-8-22 0-31 4-4 10-7 15-7 5 0 11 3 15 7l70 74c8 7 8 22 0 31z"/>
<glyph glyph-name="post" unicode="&#57465;" d="M416 224l-256 0 0 32 256 0z m0-96l-256 0 0 32 256 0z m-256 224l128 0 0-32-128 0z m320 96l-384 0c-18 0-32-14-32-32l0-384c-32 0-32 14-32 32l0 416 416 0c0 18-15 32-32 32l-384 0c-18 0-32-14-32-32l0-416c0-35 29-64 64-64l384 0c35 0 64 29 64 64l0 352c0 18-14 32-32 32z"/>
<glyph glyph-name="plus-1" unicode="&#57466;" d="M457 302l0-55c0-8-3-14-8-20-5-5-12-8-19-8l-119 0 0-118c0-8-3-15-8-20-5-5-12-8-20-8l-54 0c-8 0-15 3-20 8-5 5-8 12-8 20l0 118-119 0c-7 0-14 3-19 8-5 6-8 12-8 20l0 55c0 7 3 14 8 19 5 5 12 8 19 8l119 0 0 119c0 8 3 14 8 19 5 6 12 8 20 8l54 0c8 0 15-2 20-8 5-5 8-11 8-19l0-119 119 0c7 0 14-3 19-8 5-5 8-12 8-19z"/>
</font>
</defs>
</svg>
